img image001 image001 image001 image001 image001 image001 image001 image001 image001 image001 image001 image001 image001 image001 image001

Planets Sun Sun Sun
Статистика раздачи
Автор: Снежана | Размер: 10.47 ГБ | Добавлен: 27 июл 2013
Раздают: 26    Качают: 4
Скачать торрент
Скачать торрент
Описание торрента

СообщениеДобавлено: 27 июл 2013 

#77

Информация о фильме
Название: Мадагаскар 3
Оригинальное название: Madagascar 3: Europe's Most Wanted
Год выхода: 2012
Жанр: Мультфильм
Режиссер: Эрик Дарнелл, Том МакГрат, Конрад Вернон
В ролях: Бен Стиллер, Крис Рок, Дэвид Швиммер, Джада Пинкетт Смит, Саша Барон Коэн, Седрик «Развлекатель», Энди Рихтер, Фрэнсис МакДорманд, Брайан Крэнстон, Мартин Шорт

О фильме:
Лев Алекс, зебра Марти, жираф Мелман и бегемот Глория присоединяются к бродячему цирку, в надежде вернуться в Нью-Йорк.



Страна: США
Студия: DreamWorks Animation
Продолжительность: 01:33:25
Перевод: Дублированный [Лицензия]

Файл
Кодек: AVC
Качество: BDRip 1080p [HDChina]
Видео: 1920x1080 (16:9), 23.976 fps, 14.0 Mbps (0.282 bit/pixel)
Аудио #1: AC-3, 48.0 KHz, 6 ch, 640 Kbps, CBR (Russian)
Аудио #2: AC-3, 48.0 KHz, 6 ch, 640 Kbps, CBR (Ukrainian)
Аудио #3: AC-3, 48.0 KHz, 6 ch, 640 Kbps, CBR (English)
Аудио #4: AC-3, 48.0 KHz, 2 ch, 128 Kbps, CBR (English)
Субтитры: Russian, Russian, English, English, English
Дополнительно: Сохранены чаптеры с Blu-Ray

Семпл

General
Complete name : F:Madagascar 3 Europes Most Wanted 2012.1080p.Blu-Ray.Rus.Ukr.Eng.mkv
Format : Matroska
File size : 10.5 GiB
Duration : 1h 33mn
Overall bit rate : 16.1 Mbps
Movie name : Goliaf
Encoded date : UTC 2010-02-22 21:41:31
Writing application : mkvmerge v5.8.0 ('No Sleep / Pillow') built on Sep 30 2012 10:57:14
Writing library : libebml v1.3.0 + libmatroska v1.4.0

Video
ID : 1
Format : AVC
Format/Info : Advanced Video Codec
Format profile : High@L4.1
Format settings, CABAC : Yes
Format settings, ReFrames : 4 frames
Muxing mode : Container profile=Unknown@4.1
Codec ID : V_MPEG4/ISO/AVC
Duration : 1h 33mn
Bit rate : 14.0 Mbps
Width : 1 920 pixels
Height : 1 080 pixels
Display aspect ratio : 16:9
Frame rate : 23.976 fps
Color space : YUV
Chroma subsampling : 4:2:0
Bit depth : 8 bits
Scan type : Progressive
Bits/(Pixel*Frame) : 0.282
Stream size : 8.93 GiB (85%)
Title : Madagascar 3: Europe's Most Wanted [HDChina]
Writing library : x264 core 128 r2216+688+33 06dac27 tMod+MixAQ [8-bit@4:2:0 X86_64]
Encoding settings : cabac=1 / ref=4 / deblock=1:-1:-1 / analyse=0x3:0x113 / me=umh / subme=11 / psy=1 / fade_compensate=0.00 / psy_rd=0.75:0.00 / mixed_ref=1 / me_range=48 / chroma_me=1 / trellis=2 / 8x8dct=1 / cqm=0 / deadzone=21,11 / fast_pskip=0 / chroma_qp_offset=-2 / threads=18 / lookahead_threads=3 / sliced_threads=0 / nr=0 / decimate=0 / interlaced=0 / bluray_compat=0 / constrained_intra=0 / fgo=0 / bframes=8 / b_pyramid=2 / b_adapt=2 / b_bias=0 / direct=3 / weightb=1 / open_gop=0 / weightp=2 / keyint=240 / keyint_min=24 / scenecut=40 / intra_refresh=0 / rc_lookahead=240 / rc=2pass / mbtree=1 / bitrate=14000 / ratetol=1.0 / qcomp=0.70 / qpmin=0 / qpmax=69 / qpstep=4 / cplxblur=20.0 / qblur=0.5 / ip_ratio=1.10 / aq=4 / aq-strength=1.10 / aq-sensitivity=10.00 / aq-ifactor=1.00 / aq-pfactor=1.00 / aq-bfactor=1.00 / aq2=0

Audio #1
ID : 2
Format : AC-3
Format/Info : Audio Coding 3
Mode extension : CM (complete main)
Codec ID : A_AC3
Duration : 1h 33mn
Bit rate mode : Constant
Bit rate : 640 Kbps
Channel(s) : 6 channels
Channel positions : Front: L C R, Side: L R, LFE
Sampling rate : 48.0 KHz
Stream size : 428 MiB (4%)
Title : DD 5.1 @ 640 kbps - Russian DUB, BD EUR
Language : Russian

Audio #2
ID : 3
Format : AC-3
Format/Info : Audio Coding 3
Mode extension : CM (complete main)
Codec ID : A_AC3
Duration : 1h 33mn
Bit rate mode : Constant
Bit rate : 640 Kbps
Channel(s) : 6 channels
Channel positions : Front: L C R, Side: L R, LFE
Sampling rate : 48.0 KHz
Stream size : 428 MiB (4%)
Title : DD 5.1 @ 640 kbps - Ukrainian DUB, BD EUR
Language : Ukrainian

Audio #3
ID : 4
Format : AC-3
Format/Info : Audio Coding 3
Mode extension : CM (complete main)
Codec ID : A_AC3
Duration : 1h 33mn
Bit rate mode : Constant
Bit rate : 640 Kbps
Channel(s) : 6 channels
Channel positions : Front: L C R, Side: L R, LFE
Sampling rate : 48.0 KHz
Stream size : 428 MiB (4%)
Title : DD 5.1 @ 640 kbps

Audio #4
ID : 5
Format : AC-3
Format/Info : Audio Coding 3
Mode extension : CM (complete main)
Codec ID : A_AC3
Duration : 1h 33mn
Bit rate mode : Constant
Bit rate : 128 Kbps
Channel(s) : 2 channels
Channel positions : Front: L R
Sampling rate : 48.0 KHz
Stream size : 85.5 MiB (1%)
Title : Director's Commentary

Text #1
ID : 6
Format : UTF-8
Codec ID : S_TEXT/UTF8
Codec ID/Info : UTF-8 Plain Text
Title : Forced
Language : Russian

Text #2
ID : 7
Format : UTF-8
Codec ID : S_TEXT/UTF8
Codec ID/Info : UTF-8 Plain Text
Language : Russian

Text #3
ID : 8
Format : UTF-8
Codec ID : S_TEXT/UTF8
Codec ID/Info : UTF-8 Plain Text

Text #4
ID : 9
Format : UTF-8
Codec ID : S_TEXT/UTF8
Codec ID/Info : UTF-8 Plain Text
Title : SDH

Text #5
ID : 10
Format : UTF-8
Codec ID : S_TEXT/UTF8
Codec ID/Info : UTF-8 Plain Text
Title : Director's Commentary

Menu
00:00:00.000 : en:00:00:00.000
00:05:16.316 : en:00:05:16.316
00:10:51.985 : en:00:10:51.985
00:19:46.310 : en:00:19:46.310
00:27:49.835 : en:00:27:49.835
00:32:50.552 : en:00:32:50.552
00:40:34.974 : en:00:40:34.974
00:46:51.976 : en:00:46:51.976
00:52:00.534 : en:00:52:00.534
00:58:55.157 : en:00:58:55.157
01:00:23.411 : en:01:00:23.411
01:04:19.314 : en:01:04:19.314
01:10:59.672 : en:01:10:59.672
01:15:30.317 : en:01:15:30.317
01:21:09.782 : en:01:21:09.782
01:22:48.630 : en:01:22:48.630


Релиз от:



   Похожие торренты   Торрент   Размер 
В этой теме нет новых непрочитанных сообщений. Мадагаскар 3 / Madagascar 3: Europe's Most Wanted (2012) BDRip 1080p | 3D-Video | D | Лицензия

108 | 8

7.68 ГБ

В этой теме нет новых непрочитанных сообщений. Мадагаскар 3 / Madagascar 3: Europe's Most Wanted (2012) BD3D 1080p | 3D-Video | D | Лицензия

17 | 24

35.98 ГБ

В этой теме нет новых непрочитанных сообщений. Мадагаскар 3 / Madagascar 3: Europe's Most Wanted (2012) BDRip 1080p

145 | 23

5.76 ГБ

В этой теме нет новых непрочитанных сообщений. Мадагаскар 3 / Madagascar 3: Europe's Most Wanted (2012) BDRip от HELLYWOOD | Лицензия

162 | 6

1.45 ГБ

В этой теме нет новых непрочитанных сообщений. Мадагаскар 3 / Madagascar 3: Europe's Most Wanted (2012) BDRip-AVC от potroks | D | Лицензия

103 | 3

1.46 ГБ

В этой теме нет новых непрочитанных сообщений. Мадагаскар 3 / Madagascar 3: Europe's Most Wanted (2012) BDRip от HQCLUB | Лицензия

1379 | 41

1.45 ГБ

В этой теме нет новых непрочитанных сообщений. Мадагаскар 3 / Madagascar 3: Europe's Most Wanted (2012) BDRip 1080p [Hi10P] от FREEISLAND

140 | 4

4.39 ГБ




Вы не можете начинать темы
Вы не можете отвечать на сообщения
Вы не можете редактировать свои сообщения
Вы не можете удалять свои сообщения
Вы не можете добавлять вложения

Перейти:  
Для Мосгорсуда, Роскомнадзора и рекламодателей: mosgorsud-torrent[собачка]yandex.ru
 Вход
ppkBB3cker v.2 © 2008-2014 @ PPK
[ Time : 0.024s | 14 Queries | GZIP : Off ]

Торрент трекер RUTOR.IN, Не можете зайти на rutor.org? Какой новый адрес рутор? Какое зеркало рутор? Не работает rutor.org и зеркала? Тогда наш торрент специально для вас. Rutor.in неофициальное зеркало rutor. В случае если у Вас заблокирован rutor или вдруг Вы не можете на него зайти, то Вы без труда сможете скачать бесплатно и без рекламы последние новинки кино, игр, сериалов и прочего у нас, на Rutor.in. Не нужно использовать прокси, чтобы зайти на рутор, достаточно воспользоваться нашим ресурсом. Все новые фильмы, игры, сериалы, книги и музыка за 2013 и 2014 годы через торрент бесплатно. Скачивайте фильмы в хорошем качестве, игры для пк, xbox, playstation без регистрации. У нас вы найдете новые Зарубежные сериалы и Русские сериалы 2013, 2014, 2015 годов. Оставайтесь с нами, качайте любимые фильмы, игры, сериалы, книги и музыку.