img image001 image001 image001 image001 image001 image001 image001 image001 image001 image001 image001 image001 image001 image001 image001

Planets Sun Sun Sun
Статистика раздачи
Автор: Снежана | Размер: 8.75 ГБ | Добавлен: 27 июл 2013
Раздают: 21    Качают: 5
Скачать торрент
Скачать торрент
Описание торрента

СообщениеДобавлено: 27 июл 2013 

Торрент перезалит 12 октября 2012 года... 17 серия была повтором 16-й, приношу извинения.
#77

Страна: США
Жанр: мультфильм, фантастика, боевик, семейный
Год выпуска: 2011
Продолжительность: ~ 00:22:00 x 26 эпизодов

Перевод: Профессиональный (дублированный) лицензия
Cубтитры: нет
Оригинальная аудиодорожка: нет

Режиссер: Винтон Хёк, Сайро Нили, Фрэнк Пор / Vinton Heuck, Ciro Nieli, Frank Paur

В ролях: Эрик Лумис, Брайан Блум, Коллин О’Шонесси, Рик Д. Вассерман, Крис Кокс, Фред Татаскьор, Джеймс С. Мэтис III, Уолли Вингерт, Фил ЛаМарр, Алекс Десерт...

Описание: Неизвестная сила наносит удар по четырем тюрьмам для сверхлюдей, и десятки опаснейших суперзлодеев вырываются на свободу. Самые могучие супергерои объединяются в альянс под названием Мстители, чтобы вернуть вырвавшееся на свободу зло за решетку…






Источник: 4хDVD9 R5
Качество видео: DVDRip
Формат видео: AVI

Видео: 720x400 (16:9), 25 fps, XViD ~ 2000 kbps avg, 0.276 bit/pixel
Аудио: 48 kHz, AC3, 2 ch, 192.00 kbps Русский
Дополнительно: Релиз расчитан под запись на два DVD5 по 13 серий на диск.

Раздача от:

Диск 1:
1. Железный Человек начало - 22 сентября 2010 года
2. Могучий Тор - 24 октября 2010 года
3. Халк Против всех - 24 октября 2010 года
4. Встретить Капитана Америка - 24 октября 2010 года
5. Человек в муравейнике - 24 октября 2010 года
6. Побег: Часть 1 - 20 октября 2010 года
7. Побег: Часть 2 - 20 октября 2010 года
8. Нуждается в сборке - 27 октября 2010 года
9. Живая Легенда - 3 ноября 2010 года
10. Все Замечательно - 10 ноября 2010 года
11. Путь "Пантеры" - 17 ноября 2010 года
12. Гамма Мир, Часть 1 - 26 ноября 2010 года
13. Гамма Мир, Часть 2 - 26 ноября 2010 года

Диск 2:
14. Мастера Зла - 5 декабря 2010 года
15. Часовой № 459 - 12 декабря 2010 года
16. Укравший завтрашний день - 19 декабря 2010 года
17. Вторжение Канга - 9 января 2011 года
18. Династия Канг - 16 января 2011 года
19. Жало вдовы - 23 января 2011 года
20. Ларец Древнейших Зим - 3 апреля 2011 года
21. Слава Гидре! - 4 апреля 2011 года
22. Ультрон пять - 5 апреля 2011 года
23. Задача Ультрона - 6 апреля 2011 года
24. Земля в заложниках - 7 апреля 2011 года
25. Падение Асгарда - 11 апреля 2011 года
26. День, каких не было - 12 апреля 2011

Общее
Полное имя : Mstiteli.mult.2011.D.DVDRip_[Youtracker]_by_avproh.avi
Формат : AVI
Формат/Информация : Audio Video Interleave
Размер файла : 347 Мбайт
Продолжительность : 22 м.
Общий поток : 2187 Кбит/сек
Программа кодирования : VirtualDubMod 1.5.10.3 | www.virtualdub-fr.org || (build 2550/release)
Библиотека кодирования : VirtualDubMod build 2550/release

Видео
Идентификатор : 0
Формат : MPEG-4 Visual
Профиль формата : Advanced Simple@L5
Параметр BVOP формата : 1
Параметр QPel формата : Нет
Параметр GMC формата : Без точки перехода
Параметр матрицы формата : Выборочная
Идентификатор кодека : XVID
Идентификатор кодека/Подсказка : XviD
Продолжительность : 22 м.
Битрейт : 1985 Кбит/сек
Ширина : 720 пикселей
Высота : 400 пикселей
Соотношение сторон : 16:9
Частота кадров : 25,000 кадров/сек
Цветовое пространство : YUV
Субдискретизация насыщенности : 4:2:0
Битовая глубина : 8 бит
Тип развёртки : Прогрессивная
Метод сжатия : С потерями
Бит/(Пиксели*Кадры) : 0.276
Размер потока : 315 Мбайт (91%)
Библиотека кодирования : XviD 65

Аудио
Идентификатор : 1
Формат : AC-3
Формат/Информация : Audio Coding 3
Профиль формата : Dolby Digital
Расширение режима : CM (complete main)
Параметр Endianness формата : Big
Идентификатор кодека : 2000
Продолжительность : 22 м.
Вид битрейта : Постоянный
Битрейт : 192 Кбит/сек
Каналы : 2 канала
Расположение каналов : Front: L R
Частота : 48,0 КГц
Битовая глубина : 16 бит
Метод сжатия : С потерями
Размер потока : 30,4 Мбайт (9%)
Выравнивание : Разделение по промежуткам
Продолжительность промежутка : 40 мс. (1,00 видеокадр)
Время предзагрузки промежутка : 500 мс.






   Похожие торренты   Торрент   Размер 
В этой теме нет новых непрочитанных сообщений. Мстители: Величайшие герои Земли / The Avengers: Earth's Mightiest Heroes [01x01-26] (2011) DVDRip-AVC от Youtracker | D

375 | 26

8.73 ГБ

В этой теме нет новых непрочитанных сообщений. Мстители: Величайшие герои Земли / The Avengers: Earth's Mightiest Heroes [01x01-26] (2011) 4xDVD9 от Youtracker | лицензия

0 | 15

26.11 ГБ

В этой теме нет новых непрочитанных сообщений. Мстители: Величайшие Герои Земли / The Avengers: Earth's Mightiest Heroes [02x01-26 из 26] (2012) DVB | CTC

2 | 7

24.88 ГБ

В этой теме нет новых непрочитанных сообщений. Мстители: Величайшие герои Земли / The Avengers: Earth's Mightiest Heroes [01-02x01-52 ] (2010-2012) 8 x DVD9 от New-Team | D | Лицензия

27 | 27

57.2 ГБ

В этой теме нет новых непрочитанных сообщений. Мстители: Величайшие Герои Земли / The Avengers: Earth's Mightiest Heroes [02x01-09 из 26] (2012) WEB-DLRip | Kapets's Studios & SkyeFilm

0 | 2

2.66 ГБ

В этой теме нет новых непрочитанных сообщений. Мстители: Могучие герои Земли / The Avengers: Earth's Mightiest Heroes [S02] (2012) WEB-DLRip

109 | 15

4.82 ГБ

В этой теме нет новых непрочитанных сообщений. Мстители - Могучие Герои Земли / The Avengers - Earth's Mightiest Heroes [02x07-08 из 26] (2012) WEB-DL 720p

0 | 2

1.28 ГБ




Вы не можете начинать темы
Вы не можете отвечать на сообщения
Вы не можете редактировать свои сообщения
Вы не можете удалять свои сообщения
Вы не можете добавлять вложения

Перейти:  
Для Мосгорсуда, Роскомнадзора и рекламодателей: mosgorsud-torrent[собачка]yandex.ru
 Вход
ppkBB3cker v.2 © 2008-2014 @ PPK
[ Time : 1.000s | 14 Queries | GZIP : Off ]

Торрент трекер RUTOR.IN, Не можете зайти на rutor.org? Какой новый адрес рутор? Какое зеркало рутор? Не работает rutor.org и зеркала? Тогда наш торрент специально для вас. Rutor.in неофициальное зеркало rutor. В случае если у Вас заблокирован rutor или вдруг Вы не можете на него зайти, то Вы без труда сможете скачать бесплатно и без рекламы последние новинки кино, игр, сериалов и прочего у нас, на Rutor.in. Не нужно использовать прокси, чтобы зайти на рутор, достаточно воспользоваться нашим ресурсом. Все новые фильмы, игры, сериалы, книги и музыка за 2013 и 2014 годы через торрент бесплатно. Скачивайте фильмы в хорошем качестве, игры для пк, xbox, playstation без регистрации. У нас вы найдете новые Зарубежные сериалы и Русские сериалы 2013, 2014, 2015 годов. Оставайтесь с нами, качайте любимые фильмы, игры, сериалы, книги и музыку.