img image001 image001 image001 image001 image001 image001 image001 image001 image001 image001 image001 image001 image001 image001 image001

Planets Sun Sun Sun
Статистика раздачи
Автор: Снежана | Размер: 5.76 ГБ | Добавлен: 27 июл 2013
Раздают: 145    Качают: 23
Скачать торрент
Скачать торрент
Описание торрента

СообщениеДобавлено: 27 июл 2013 

#77

Информация о фильме
Название: Мадагаскар 3
Оригинальное название: Madagascar 3: Europe's Most Wanted
Год выхода: 2012
Жанр: мультфильм
Режиссер: Эрик Дарнелл, Том МакГрат, Конрад Вернон
В ролях: Бен Стиллер, Крис Рок, Дэвид Швиммер, Джада Пинкетт Смит, Саша Барон Коэн, Седрик «Развлекатель», Энди Рихтер, Том МакГрат, Фрэнсис МакДорманд, Джессика Честейн
О фильме: Лев Алекс, зебра Марти, гиппопотамиха Глория и жираф Мелман, а также король Джулиан, Морис, Морт и Пингвины все еще пытаются вернуться в Нью-Йорк. На этот раз их путь пройдет через Европу, где они откроют свой цирк.



Выпущено: DreamWorks Animation
Продолжительность: 01:33:24
Перевод: Дублированный (лицензия)

Файл
Кодек: x264
Качество: BDRip (источник: Blu-ray Disc)
Видео: 1920x1080 (16:9), 23.976 fps, 7549 kbps
Аудио #1: AC-3, 6 ch, 640 kbps (Rus)
Аудио #2: AC-3, 6 ch, 640 kbps (Eng)
Субтитры: Русские (форс,полные), Английские
Скачать: сэмпл

Скриншоты

Общее
Уникальный идентификатор : 188290787423061824854677909685510722081 (0x8DA77C902E6C3316B8054CF2DA41D221)
Полное имя : Madagascar.3.Europe's.Most.Wanted.2012.BDRip.1080p.Rus.Eng.mkv
Формат : Matroska
Версия формата : Version 2
Размер файла : 5,76 Гбайт
Продолжительность : 1 ч. 33 м.
Общий поток : 8831 Кбит/сек
Название фильма : Мадагаскар 3 / Madagascar 3: Europe's Most Wanted (2012)
Дата кодирования : UTC 2012-10-13 00:54:18
Программа кодирования : mkvmerge v5.8.0 ('No Sleep / Pillow') built on Sep 2 2012 15:37:04
Библиотека кодирования : libebml v1.2.3 + libmatroska v1.3.0

Видео
Идентификатор : 1
Формат : AVC
Формат/Информация : Advanced Video Codec
Профиль формата : High@L4.1
Параметр CABAC формата : Да
Параметр ReFrames формата : 4 кадра
Идентификатор кодека : V_MPEG4/ISO/AVC
Продолжительность : 1 ч. 33 м.
Битрейт : 7549 Кбит/сек
Ширина : 1920 пикселей
Высота : 1080 пикселей
Соотношение сторон : 16:9
Частота кадров : 23,976 кадра/сек
Цветовое пространство : YUV
Субдискретизация насыщенности : 4:2:0
Битовая глубина : 8 бит
Тип развёртки : Прогрессивная
Бит/(Пиксели*Кадры) : 0.152
Размер потока : 4,81 Гбайт (84%)
Заголовок : Release by AlexKa
Библиотека кодирования : x264 core 128 r2216 198a7ea
Настройки программы : cabac=1 / ref=4 / deblock=1:0:0 / analyse=0x3:0x133 / me=umh / subme=10 / psy=1 / psy_rd=1.00:0.00 / mixed_ref=1 / me_range=32 / chroma_me=1 / trellis=2 / 8x8dct=1 / cqm=0 / deadzone=21,11 / fast_pskip=0 / chroma_qp_offset=-2 / threads=12 / lookahead_threads=2 / sliced_threads=0 / nr=0 / decimate=0 / interlaced=0 / bluray_compat=0 / constrained_intra=0 / bframes=3 / b_pyramid=2 / b_adapt=2 / b_bias=0 / direct=3 / weightb=1 / open_gop=0 / weightp=2 / keyint=240 / keyint_min=23 / scenecut=40 / intra_refresh=0 / rc=2pass / mbtree=0 / bitrate=7549 / ratetol=1.0 / qcomp=0.60 / qpmin=0 / qpmax=69 / qpstep=4 / cplxblur=20.0 / qblur=0.5 / ip_ratio=1.40 / pb_ratio=1.30 / aq=1:1.00
Язык : English

Аудио #1
Идентификатор : 2
Формат : AC-3
Формат/Информация : Audio Coding 3
Расширение режима : CM (complete main)
Идентификатор кодека : A_AC3
Продолжительность : 1 ч. 33 м.
Вид битрейта : Постоянный
Битрейт : 640 Кбит/сек
Каналы : 6 каналов
Расположение каналов : Front: L C R, Side: L R, LFE
Частота : 48,0 КГц
Битовая глубина : 16 бит
Метод сжатия : С потерями
Размер потока : 428 Мбайт (7%)
Заголовок : Rus
Язык : Russian

Аудио #2
Идентификатор : 3
Формат : AC-3
Формат/Информация : Audio Coding 3
Расширение режима : CM (complete main)
Идентификатор кодека : A_AC3
Продолжительность : 1 ч. 33 м.
Вид битрейта : Постоянный
Битрейт : 640 Кбит/сек
Каналы : 6 каналов
Расположение каналов : Front: L C R, Side: L R, LFE
Частота : 48,0 КГц
Битовая глубина : 16 бит
Метод сжатия : С потерями
Размер потока : 428 Мбайт (7%)
Заголовок : Eng
Язык : English

Текст #1
Идентификатор : 4
Формат : UTF-8
Идентификатор кодека : S_TEXT/UTF8
Идентификатор кодека/Информация : UTF-8 Plain Text
Заголовок : Rus forced
Язык : Russian

Текст #2
Идентификатор : 5
Формат : UTF-8
Идентификатор кодека : S_TEXT/UTF8
Идентификатор кодека/Информация : UTF-8 Plain Text
Заголовок : Rus
Язык : Russian

Текст #3
Идентификатор : 6
Формат : UTF-8
Идентификатор кодека : S_TEXT/UTF8
Идентификатор кодека/Информация : UTF-8 Plain Text
Заголовок : Eng
Язык : English

Меню
00:00:00.000 : :Chapter 01
00:05:16.315 : :Chapter 02
00:10:51.984 : :Chapter 03
00:19:46.310 : :Chapter 04
00:27:49.834 : :Chapter 05
00:32:50.551 : :Chapter 06
00:40:34.974 : :Chapter 07
00:46:51.975 : :Chapter 08
00:52:00.534 : :Chapter 09
00:58:55.156 : :Chapter 10
01:00:23.411 : :Chapter 11
01:04:19.313 : :Chapter 12
01:10:59.672 : :Chapter 13
01:15:30.317 : :Chapter 14
01:21:09.781 : :Chapter 15
01:22:48.630 : :Chapter 16
01:33:23.931 : :Chapter 17
x264 [info]: frame I:1695 Avg QP:17.06 size:252488
x264 [info]: frame P:48893 Avg QP:19.98 size: 63857
x264 [info]: frame B:83778 Avg QP:22.35 size: 20742



   Похожие торренты   Торрент   Размер 
В этой теме нет новых непрочитанных сообщений. Мадагаскар 3 / Madagascar 3: Europe's Most Wanted (2012) BDRip 1080p | Лицензия

26 | 4

10.47 ГБ

В этой теме нет новых непрочитанных сообщений. Мадагаскар 3 / Madagascar 3: Europe's Most Wanted (2012) BDRip 1080p [Hi10P] от FREEISLAND

140 | 4

4.39 ГБ

В этой теме нет новых непрочитанных сообщений. Мадагаскар 3 / Madagascar 3: Europe's Most Wanted (2012) BDRip 1080p | 3D-Video | D | Лицензия

108 | 8

7.68 ГБ

В этой теме нет новых непрочитанных сообщений. Мадагаскар 3 / Madagascar 3: Europe's Most Wanted (2012) Blu-ray от 1080p Youtracker и HDCLUB | D

9 | 5

38.86 ГБ

В этой теме нет новых непрочитанных сообщений. Мадагаскар 3 / Madagascar 3: Europe's Most Wanted (2012) BD3D 1080p | 3D-Video | D | Лицензия

17 | 24

35.98 ГБ

В этой теме нет новых непрочитанных сообщений. Мадагаскар 3 / Madagascar 3: Europe's Most Wanted (2012) BDRip от HQ-ViDEO

53 | 12

1.96 ГБ

В этой теме нет новых непрочитанных сообщений. Мадагаскар 3 / Madagascar 3: Europe's Most Wanted (2012) BDRip-AVC от RG 25 Кадр

13 | 3

2.18 ГБ




Вы не можете начинать темы
Вы не можете отвечать на сообщения
Вы не можете редактировать свои сообщения
Вы не можете удалять свои сообщения
Вы не можете добавлять вложения

Перейти:  
Для Мосгорсуда, Роскомнадзора и рекламодателей: mosgorsud-torrent[собачка]yandex.ru
 Вход
ppkBB3cker v.2 © 2008-2014 @ PPK
[ Time : 0.048s | 14 Queries | GZIP : Off ]

Торрент трекер RUTOR.IN, Не можете зайти на rutor.org? Какой новый адрес рутор? Какое зеркало рутор? Не работает rutor.org и зеркала? Тогда наш торрент специально для вас. Rutor.in неофициальное зеркало rutor. В случае если у Вас заблокирован rutor или вдруг Вы не можете на него зайти, то Вы без труда сможете скачать бесплатно и без рекламы последние новинки кино, игр, сериалов и прочего у нас, на Rutor.in. Не нужно использовать прокси, чтобы зайти на рутор, достаточно воспользоваться нашим ресурсом. Все новые фильмы, игры, сериалы, книги и музыка за 2013 и 2014 годы через торрент бесплатно. Скачивайте фильмы в хорошем качестве, игры для пк, xbox, playstation без регистрации. У нас вы найдете новые Зарубежные сериалы и Русские сериалы 2013, 2014, 2015 годов. Оставайтесь с нами, качайте любимые фильмы, игры, сериалы, книги и музыку.