img image001 image001 image001 image001 image001 image001 image001 image001 image001 image001 image001 image001 image001 image001 image001

Planets Sun Sun Sun
Статистика раздачи
Автор: Снежана | Размер: 4.39 ГБ | Добавлен: 27 июл 2013
Раздают: 140    Качают: 4
Скачать торрент
Скачать торрент
Описание торрента

СообщениеДобавлено: 27 июл 2013 

Мадагаскар 3 / Madagascar 3: Europe's Most Wanted
(2012)
BDRip 1080p [Hi10P] от FREEISLAND




Жанр: мультфильм, комедия, приключения, семейный

Режиссер: Эрик Дарнелл, Том МакГрат, Конрад Вернон

Роли дублировали (рус):
Константин Хабенский (Alex), Оскар Кучера (Marty), Александр Цекало (Melman), Маша Малиновская (Gloria), Андрей Лёвин (Julien), Диомид Виноградов (Maurice), Анатолий Дубанов (Skipper), Дмитрий Курта, Даниил Щебланов (Stefano), Александр Дасевич (Private), Прохор Чеховской (Jonesy the Dog), Илья Хвостиков (Mayor of New York City)

Описание:
Лев Алекс, зебра Марти, гиппопотамиха Глория и жираф Мелман, а также король Джулиан, Морис, Морт и Пингвины все еще пытаются вернуться в Нью-Йорк. На этот раз их путь пройдет через Европу, где они откроют свой цирк.



Официальный сайт

Страна: США
Выпущено: DreamWorks Animation, Pacific Data Images (PDI)
Продолжительность: 1 ч. 22 м. 13 с. (титры обрезаны в целях экономии битрейта)
Перевод 1: Русский профессиональный (полное дублирование)
Перевод 2: Украинский профессиональный (полное дублирование)
Оригинальная разбивка на главы: сохранена

Внимание!

Рип в High 10 Profile, в настоящее время не поддерживается большинством аппаратных проигрывателей.
Для корректного воспроизведения может потребоваться обновление ПО.
Владельцам несовместимого железа просьба не беспокоить, на трекере есть альтернативные релизы.

Качество: BDRip 1080p Hi10P (SSIM: 0.9841825)
Исходник: Blu-Ray Disc
Контейнер: MKV
Видео кодек: x264 High10@L5.1
Аудио кодек: AC-3
Видео: AVC at 6355 Кбит/сек, 1920 x 1080 (1.778) at 23.976 fps
Аудио RUS: AC-3 at 640 Кбит/сек, 6 каналов, 48,0 КГц (DUB)
Аудио UKR: AC-3 at 640 Кбит/сек, 6 каналов, 48,0 КГц (DUB)
Субтитры: русские, украинские (форсированые, полные) (SRT/UTF-8)


Общее
Уникальный идентификатор : 179486616906085159697263031374171420127 (0x8707DD7166C622A5AE9A41F5AFE935DF)
Полное имя : Мадагаскар 3 [Madagascar 3] (2012) BDRip-Hi10P 1080p by_F.HD.mkv
Формат : Matroska
Версия формата : Version 2
Размер файла : 4,39 Гбайт
Продолжительность : 1 ч. 22 м.
Общий поток : 7637 Кбит/сек
Название фильма : релиз от FREEISLAND.ORG
Дата кодирования : UTC 2012-10-15 11:21:41
Программа кодирования : mkvmerge v5.8.0 ('No Sleep / Pillow') built on Sep 2 2012 15:37:04
Библиотека кодирования : libebml v1.2.3 + libmatroska v1.3.0

Видео
Идентификатор : 1
Формат : AVC
Формат/Информация : Advanced Video Codec
Профиль формата : High 10@L5.1
Параметр CABAC формата : Да
Параметр ReFrames формата : 16 кадров
Идентификатор кодека : V_MPEG4/ISO/AVC
Продолжительность : 1 ч. 22 м.
Битрейт : 6355 Кбит/сек
Ширина : 1920 пикселей
Высота : 1080 пикселей
Соотношение сторон : 16:9
Частота кадров : 23,976 кадра/сек
Цветовое пространство : YUV
Субдискретизация насыщенности : 4:2:0
Битовая глубина : 10 бит
Тип развёртки : Прогрессивная
Бит/(Пиксели*Кадры) : 0.128
Размер потока : 3,56 Гбайт (81%)
Библиотека кодирования : x264 core 128 r2216+686+32 ed27f2d tMod [10-bit@all X86_64]
Настройки программы : cabac=1 / ref=16 / deblock=1:1:1 / analyse=0x3:0x133 / me=umh / subme=11 / psy=1 / fade_compensate=0.00 / psy_rd=1.00:0.00 / mixed_ref=1 / me_range=64 / chroma_me=1 / trellis=2 / 8x8dct=1 / cqm=0 / deadzone=21,11 / fast_pskip=0 / chroma_qp_offset=-2 / threads=12 / lookahead_threads=2 / sliced_threads=0 / nr=0 / decimate=1 / interlaced=0 / bluray_compat=0 / constrained_intra=0 / fgo=0 / bframes=6 / b_pyramid=2 / b_adapt=2 / b_bias=0 / direct=3 / weightb=1 / open_gop=0 / weightp=2 / keyint=248 / keyint_min=24 / scenecut=40 / intra_refresh=0 / rc_lookahead=0 / rc=2pass / mbtree=0 / bitrate=6355 / ratetol=1.0 / qcomp=1.00 / qpmin=0 / qpmax=48 / qpstep=4 / cplxblur=20.0 / qblur=0.5 / vbv_maxrate=240000 / vbv_bufsize=240000 / nal_hrd=none / ip_ratio=1.40 / pb_ratio=1.30 / aq=4:0.88
Default : Да
Forced : Нет
Основные цвета : BT.709-5, BT.1361, IEC 61966-2-4, SMPTE RP177
Характеристики трансфера : BT.709-5, BT.1361
Коэффициенты матрицы : BT.709-5, BT.1361, IEC 61966-2-4 709, SMPTE RP177

Аудио #1
Идентификатор : 2
Формат : AC-3
Формат/Информация : Audio Coding 3
Расширение режима : CM (complete main)
Идентификатор кодека : A_AC3
Продолжительность : 1 ч. 22 м.
Вид битрейта : Постоянный
Битрейт : 640 Кбит/сек
Каналы : 6 каналов
Расположение каналов : Front: L C R, Side: L R, LFE
Частота : 48,0 КГц
Битовая глубина : 16 бит
Метод сжатия : С потерями
Размер потока : 376 Мбайт (8%)
Заголовок : DUB
Язык : Russian
Default : Да
Forced : Нет

Аудио #2
Идентификатор : 3
Формат : AC-3
Формат/Информация : Audio Coding 3
Расширение режима : CM (complete main)
Идентификатор кодека : A_AC3
Продолжительность : 1 ч. 22 м.
Вид битрейта : Постоянный
Битрейт : 640 Кбит/сек
Каналы : 6 каналов
Расположение каналов : Front: L C R, Side: L R, LFE
Частота : 48,0 КГц
Битовая глубина : 16 бит
Метод сжатия : С потерями
Размер потока : 376 Мбайт (8%)
Заголовок : DUB
Язык : Ukrainian
Default : Нет
Forced : Нет

Текст #1
Идентификатор : 4
Формат : UTF-8
Идентификатор кодека : S_TEXT/UTF8
Идентификатор кодека/Информация : UTF-8 Plain Text
Заголовок : на места без перевода
Язык : Russian
Default : Да
Forced : Да

Текст #2
Идентификатор : 5
Формат : UTF-8
Идентификатор кодека : S_TEXT/UTF8
Идентификатор кодека/Информация : UTF-8 Plain Text
Заголовок : Full
Язык : Russian
Default : Нет
Forced : Нет

Текст #3
Идентификатор : 6
Формат : UTF-8
Идентификатор кодека : S_TEXT/UTF8
Идентификатор кодека/Информация : UTF-8 Plain Text
Заголовок : на места без перевода
Язык : Ukrainian
Default : Нет
Forced : Нет

Текст #4
Идентификатор : 7
Формат : UTF-8
Идентификатор кодека : S_TEXT/UTF8
Идентификатор кодека/Информация : UTF-8 Plain Text
Заголовок : Full
Язык : Ukrainian
Default : Нет
Forced : Нет

Меню
00:00:00.000 : :01
00:04:38.904 : :02
00:10:14.573 : :03
00:19:08.898 : :04
00:27:12.423 : :05
00:32:13.140 : :06
00:39:57.562 : :07
00:46:14.564 : :08
00:51:23.122 : :09
00:58:17.745 : :10
00:59:45.999 : :11
01:03:41.902 : :12
01:10:22.260 : :13
01:14:52.905 : :14
01:20:32.370 : :15
01:22:11.218 : :16













СЭМПЛ

Релиз от:

Если у вас возникают вопросы типа:
-почему у меня есть звук и отсутствует изображение?
-почему у меня рассыпается картинка?
-почему у меня картинка фонит синевой или зеленью?
-зачем и кому всё это нужно?
и тому подобные, читаем FAQ.
ссылка на FAQ запрещена правилами.

По этому, гуглим на тему спойлера (Что такое 10-ти битное видео (High 10 Profile - Hi10P), и как его смотреть?).



   Похожие торренты   Торрент   Размер 
В этой теме нет новых непрочитанных сообщений. Мадагаскар 3 / Madagascar 3: Europe's Most Wanted (2012) BDRip 1080p

145 | 23

5.76 ГБ

В этой теме нет новых непрочитанных сообщений. Мадагаскар 3 / Madagascar 3: Europe's Most Wanted (2012) BDRip 1080p | Лицензия

26 | 4

10.47 ГБ

В этой теме нет новых непрочитанных сообщений. Мадагаскар 3 / Madagascar 3: Europe's Most Wanted (2012) BDRip 1080p | 3D-Video | D | Лицензия

108 | 8

7.68 ГБ

В этой теме нет новых непрочитанных сообщений. Мадагаскар 3 / Madagascar 3: Europe's Most Wanted (2012) Blu-ray от 1080p Youtracker и HDCLUB | D

9 | 5

38.86 ГБ

В этой теме нет новых непрочитанных сообщений. Мадагаскар 3 / Madagascar 3: Europe's Most Wanted (2012) BD3D 1080p | 3D-Video | D | Лицензия

17 | 24

35.98 ГБ

В этой теме нет новых непрочитанных сообщений. Мадагаскар 3 / Madagascar 3: Europe's Most Wanted (2012) BDRip-AVC от RG 25 Кадр

13 | 3

2.18 ГБ

В этой теме нет новых непрочитанных сообщений. Мадагаскар 3 / Madagascar 3: Europe's Most Wanted (2012) BDRip от HQ-ViDEO

53 | 12

1.96 ГБ




Вы не можете начинать темы
Вы не можете отвечать на сообщения
Вы не можете редактировать свои сообщения
Вы не можете удалять свои сообщения
Вы не можете добавлять вложения

Перейти:  
Для Мосгорсуда, Роскомнадзора и рекламодателей: mosgorsud-torrent[собачка]yandex.ru
 Вход
ppkBB3cker v.2 © 2008-2014 @ PPK
[ Time : 0.042s | 15 Queries | GZIP : Off ]

cron