img image001 image001 image001 image001 image001 image001 image001 image001 image001 image001 image001 image001 image001 image001 image001

Planets Sun Sun Sun
Статистика раздачи
Автор: Снежана | Размер: 6.51 ГБ | Добавлен: 27 июл 2013
Раздают: 174    Качают: 8
Скачать торрент
Скачать торрент
Описание торрента

СообщениеДобавлено: 27 июл 2013 

#77

101 далматинец 2: Приключения Патча в Лондоне / 101 Dalmatians II: Patch's London Adventure

Год выпуска: 2003
Жанр: Мультфильм, семейный
Выпущено: США, Walt Disney Pictures

Режиссер: Джим Каммеруд, Брайан Смит
В ролях: Бэрри Боствик, Джейсон Александр, Мартин Шорт, Бобби Локвуд, Сьюзан Блэйксли, Сэмьюэл Уэст, Морис ЛаМарш, Джефф Беннетт, Джоди Бенсон, Тим Бентинк, Фрэнк Уэлкер, Кэт Сауси, Мэри МакЛауд, Майкл Лернер, Скотт Алан, Катрин Бомонт, Урсула Брукс, Кори Бертон, Джим Каммингс, Ария Ноэль Курзон, Софи Хейман, Никита Хопкинс, Даамен Дж. Кралл, Каша Кропински, Питер Лавин, Эли Расселл Линэц, Николетт Литтл, Ник Мини, Роб Полсен, Джим Пиддок, Филип Проктор, Клайв Ревилл, Тара Стронг, Клайв Свифт, Бэн Тиббер

О фильме: Миллионерша Стервелла Де Виль, чья первая попытка похитить 101 далматинца и пошить из их шкурок роскошную шубу с треском провалилась, готовит новый дьявольский план по захвату славных песиков. Она потирает руки в ожидании легкого успеха, но на пути негодяйки встают храбрый щенок Патч и его новый друг Громобой — четвероногая звезда экрана! Улицы Лондона никогда еще не видели такой заварушки: двое отважных, смекалистых псов против коварной, мерзкой, но ужасно глупой Де Виль. Бедная Стервелла! Не видать ей пятнистой шубы как своих ушей!..

релиз: Hdreactor by nonename



Качество: BDRip 1080p
Видео: MPEG-4 AVC, 8000 Кбит/с, 1824х1080
Аудио 1: Русский (AC3, 6 ch, 640 Кбит/с)
Аудио 2: английский (DTS-HD MA, 6 ch, 1576 Кбит/с)
Продолжительность: 01:13:46
Перевод: Дублированный
Субтитры: Русские
D:101.Dalmatinez.2.Priklutscheniya.Patcha.v.Londone.2003.x264.1080p.mkv
General
Unique ID : 227770634896728223228622715950845351764 (0xAB5B0753A36BAC50DC841A8E008B5754)
Complete name : D:101.Dalmatinez.2.Priklutscheniya.Patcha.v.Londone.2003.x264.1080p.mkv
Format : Matroska
Format version : Version 2
File size : 6.51 GiB
Duration : 1h 13mn
Overall bit rate mode : Variable
Overall bit rate : 12.6 Mbps
Movie name : ReJIiZ by BenderBEST
Writing application : XviD4PSP 6.0 / 53.6.0
Writing library : XviD4PSP 6.0 / 53.6.0
Video #1
ID : 1
Format : AVC
Format/Info : Advanced Video Codec
Format profile : High@L4.1
Format settings, CABAC : Yes
Format settings, ReFrames : 3 frames
Codec ID : V_MPEG4/ISO/AVC
Duration : 1h 13mn
Bit rate : 10.1 Mbps
Nominal bit rate : 8 000 Kbps
Width : 1 824 pixels
Height : 1 080 pixels
Display aspect ratio : 1.689
Frame rate mode : Variable
Frame rate : 23.976 fps
Color space : YUV
Chroma subsampling : 4:2:0
Bit depth : 8 bits
Scan type : Progressive
Bits/(Pixel*Frame) : 0.215
Stream size : 5.24 GiB (80%)
Writing library : x264 core 116 r2019M 9cc407d
Encoding settings : cabac=1 / ref=3 / deblock=1:0:0 / analyse=0x3:0x133 / me=hex / subme=9 / psy=1 / psy_rd=1.00:0.20 / mixed_ref=1 / me_range=16 / chroma_me=1 / trellis=1 / 8x8dct=1 / cqm=0 / deadzone=21,11 / fast_pskip=1 / chroma_qp_offset=-3 / threads=8 / sliced_threads=0 / nr=0 / decimate=1 / interlaced=0 / bluray_compat=0 / constrained_intra=0 / bframes=3 / b_pyramid=1 / b_adapt=2 / b_bias=0 / direct=3 / weightb=1 / open_gop=0 / weightp=2 / keyint=230 / keyint_min=23 / scenecut=40 / intra_refresh=0 / rc_lookahead=40 / rc=2pass / mbtree=1 / bitrate=8000 / ratetol=1.0 / qcomp=0.60 / qpmin=10 / qpmax=51 / qpstep=4 / cplxblur=20.0 / qblur=0.5 / ip_ratio=1.40 / aq=1:1.00
Language : English
Default : Yes
Forced : No
Audio #2
ID : 2
Format : AC-3
Format/Info : Audio Coding 3
Mode extension : CM (complete main)
Codec ID : A_AC3
Duration : 1h 13mn
Bit rate mode : Constant
Bit rate : 640 Kbps
Channel(s) : 6 channels
Channel positions : Front: L C R, Side: L R, LFE
Sampling rate : 48.0 KHz
Bit depth : 16 bits
Compression mode : Lossy
Stream size : 338 MiB (5%)
Language : Russian
Default : Yes
Forced : No
Audio #3
ID : 3
Format : DTS
Format/Info : Digital Theater Systems
Format profile : MA / Core
Codec ID : A_DTS
Duration : 1h 13mn
Bit rate mode : Variable
Bit rate : 1 576 Kbps / 1 510 Kbps
Channel(s) : 6 channels
Channel positions : Front: L C R, Side: L R, LFE
Sampling rate : 48.0 KHz
Bit depth : 24 bits
Compression mode : Lossless / Lossy
Language : English
Default : Yes
Forced : No
Text #4
ID : 4
Format : UTF-8
Codec ID : S_TEXT/UTF8
Codec ID/Info : UTF-8 Plain Text
Language : Russian
Default : Yes
Forced : No





   Похожие торренты   Торрент   Размер 
В этой теме нет новых непрочитанных сообщений. 101 далматинец 2: Приключения Патча в Лондоне / 101 Dalmatians II: Patch's London Adventure (2003) BDRip 1080p от Freeisland

28 | 7

4.37 ГБ

В этой теме нет новых непрочитанных сообщений. 101 далматинец 2: Приключения Патча в Лондоне / 101 Dalmatians II: Patch's London Adventure (2003) BDRip от HQCLUB

183 | 10

1.45 ГБ

В этой теме нет новых непрочитанных сообщений. 101 далматинец 2: Приключения Патча в Лондоне / 101 Dalmatians II: Patch's London Adventure (2003) BDRip 720p

33 | 5

2.9 ГБ

В этой теме нет новых непрочитанных сообщений. 101 Далматинец 2: Приключения Патча в Лондоне / 101 Dalmatians II: Patch's London Adventure (2003) BDRip-AVC от olegek70

19 | 3

2.05 ГБ

В этой теме нет новых непрочитанных сообщений. 101 далматинец 2: Приключения Патча в Лондоне / 101 Dalmatians II: Patch's London Adventure (2003) BDRip 720p от Leonardo and Scarabey

232 | 28

1.97 ГБ

В этой теме нет новых непрочитанных сообщений. 101 далматинец 2 / 101 Dalmatians II: Patch's London Adventure (2003) DVDRip-AVC

9 | 2

1.65 ГБ

В этой теме нет новых непрочитанных сообщений. 101 далматинец / One Hundred and One Dalmatians (1961) BDRip 1080p от R.G. HD-Films | 60 fps

296 | 12

6.25 ГБ




Вы не можете начинать темы
Вы не можете отвечать на сообщения
Вы не можете редактировать свои сообщения
Вы не можете удалять свои сообщения
Вы не можете добавлять вложения

Перейти:  
Для Мосгорсуда, Роскомнадзора и рекламодателей: mosgorsud-torrent[собачка]yandex.ru
 Вход
ppkBB3cker v.2 © 2008-2014 @ PPK
[ Time : 0.030s | 14 Queries | GZIP : Off ]

Торрент трекер RUTOR.IN, Не можете зайти на rutor.org? Какой новый адрес рутор? Какое зеркало рутор? Не работает rutor.org и зеркала? Тогда наш торрент специально для вас. Rutor.in неофициальное зеркало rutor. В случае если у Вас заблокирован rutor или вдруг Вы не можете на него зайти, то Вы без труда сможете скачать бесплатно и без рекламы последние новинки кино, игр, сериалов и прочего у нас, на Rutor.in. Не нужно использовать прокси, чтобы зайти на рутор, достаточно воспользоваться нашим ресурсом. Все новые фильмы, игры, сериалы, книги и музыка за 2013 и 2014 годы через торрент бесплатно. Скачивайте фильмы в хорошем качестве, игры для пк, xbox, playstation без регистрации. У нас вы найдете новые Зарубежные сериалы и Русские сериалы 2013, 2014, 2015 годов. Оставайтесь с нами, качайте любимые фильмы, игры, сериалы, книги и музыку.