img image001 image001 image001 image001 image001 image001 image001 image001 image001 image001 image001 image001 image001 image001 image001

Planets Sun Sun Sun
Статистика раздачи
Автор: Снежана | Размер: 4.37 ГБ | Добавлен: 27 июл 2013
Раздают: 510    Качают: 30
Скачать торрент
Скачать торрент
Описание торрента

СообщениеДобавлено: 27 июл 2013 

#77

Информация о фильме
Название: Ледниковый период 4: Континентальный дрейф
Оригинальное название: Ice Age: Continental Drift
Год выхода: 2012
Жанр: мультфильм, комедия, приключения, семейный
Режиссер: Стив Мартино, Майк Тёрмайер
В ролях: Рэй Романо, Джон Легуизамо, Куин Латифа, Дэнис Лири, Джош Пек, Питер Динклэйдж, Кеке Палмер, Дженнифер Лопез, Ник Фрост, Азиз Ансари

О фильме: После приключений под землей прошло семь лет. Случился дрейф континентов. Главные герои мультфильма, отделённые от стада, вынуждены использовать айсберг в качестве плота. Они пересекают океан и попадают в неизвестные им ранее земли с экзотическими животными и пиратами, враждебно настроенными к ним. Скрэту удаётся получить свой жёлудь, но он перемещается в новые для него земли.



Выпущено: Blue Sky Studios
Продолжительность: 01:27:45
Перевод: Дублированный (лицензия)

Файл
Кодек: x264
Качество: BDRip (источник: Blu-ray Disc)
Видео: 1920x800 (2,40:1), 23.976 fps, 6045 kbps
Аудио #1: AC-3, 6 ch, 640 kbps (Rus)
Аудио #2: AC-3, 6 ch, 448 kbps (Eng)
Субтитры: Русские, Английские
Скачать: сэмпл

Скриншоты

Общее
Уникальный идентификатор : 171452301947262862794283588108512686167 (0x80FC8321DC8B8DF1A25121A0DF547057)
Полное имя : Ice.Age.Continental.Drift.2012.BDRip.1080p.Rus.Eng.mkv
Формат : Matroska
Версия формата : Version 2
Размер файла : 4,37 Гбайт
Продолжительность : 1 ч. 27 м.
Общий поток : 7128 Кбит/сек
Название фильма : Ледниковый период 4: Континентальный дрейф / Ice Age: Continental Drift (2012)
Дата кодирования : UTC 2012-10-25 18:27:18
Программа кодирования : mkvmerge v5.8.0 ('No Sleep / Pillow') built on Sep 2 2012 15:37:04
Библиотека кодирования : libebml v1.2.3 + libmatroska v1.3.0

Видео
Идентификатор : 1
Формат : AVC
Формат/Информация : Advanced Video Codec
Профиль формата : High@L4.1
Параметр CABAC формата : Да
Параметр ReFrames формата : 5 кадров
Идентификатор кодека : V_MPEG4/ISO/AVC
Продолжительность : 1 ч. 27 м.
Битрейт : 6045 Кбит/сек
Ширина : 1920 пикселей
Высота : 800 пикселей
Соотношение сторон : 2,40:1
Частота кадров : 23,976 кадра/сек
Цветовое пространство : YUV
Субдискретизация насыщенности : 4:2:0
Битовая глубина : 8 бит
Тип развёртки : Прогрессивная
Бит/(Пиксели*Кадры) : 0.164
Размер потока : 3,62 Гбайт (83%)
Заголовок : Release by AlexKa
Библиотека кодирования : x264 core 128 r2216 198a7ea
Настройки программы : cabac=1 / ref=5 / deblock=1:0:0 / analyse=0x3:0x133 / me=umh / subme=10 / psy=1 / psy_rd=1.00:0.00 / mixed_ref=1 / me_range=32 / chroma_me=1 / trellis=2 / 8x8dct=1 / cqm=0 / deadzone=21,11 / fast_pskip=0 / chroma_qp_offset=-2 / threads=12 / lookahead_threads=2 / sliced_threads=0 / nr=0 / decimate=0 / interlaced=0 / bluray_compat=0 / constrained_intra=0 / bframes=5 / b_pyramid=2 / b_adapt=2 / b_bias=0 / direct=3 / weightb=1 / open_gop=0 / weightp=2 / keyint=240 / keyint_min=23 / scenecut=40 / intra_refresh=0 / rc=2pass / mbtree=0 / bitrate=6045 / ratetol=1.0 / qcomp=0.60 / qpmin=0 / qpmax=69 / qpstep=4 / cplxblur=20.0 / qblur=0.5 / ip_ratio=1.40 / pb_ratio=1.30 / aq=1:1.00
Язык : English

Аудио #1
Идентификатор : 2
Формат : AC-3
Формат/Информация : Audio Coding 3
Расширение режима : CM (complete main)
Идентификатор кодека : A_AC3
Продолжительность : 1 ч. 27 м.
Вид битрейта : Постоянный
Битрейт : 640 Кбит/сек
Каналы : 6 каналов
Расположение каналов : Front: L C R, Side: L R, LFE
Частота : 48,0 КГц
Битовая глубина : 16 бит
Метод сжатия : С потерями
Размер потока : 402 Мбайт (9%)
Заголовок : Rus
Язык : Russian

Аудио #2
Идентификатор : 3
Формат : AC-3
Формат/Информация : Audio Coding 3
Расширение режима : CM (complete main)
Идентификатор кодека : A_AC3
Продолжительность : 1 ч. 27 м.
Вид битрейта : Постоянный
Битрейт : 448 Кбит/сек
Каналы : 6 каналов
Расположение каналов : Front: L C R, Side: L R, LFE
Частота : 48,0 КГц
Битовая глубина : 16 бит
Метод сжатия : С потерями
Размер потока : 281 Мбайт (6%)
Заголовок : Eng
Язык : English

Текст #1
Идентификатор : 4
Формат : UTF-8
Идентификатор кодека : S_TEXT/UTF8
Идентификатор кодека/Информация : UTF-8 Plain Text
Заголовок : Rus
Язык : Russian

Текст #2
Идентификатор : 5
Формат : UTF-8
Идентификатор кодека : S_TEXT/UTF8
Идентификатор кодека/Информация : UTF-8 Plain Text
Заголовок : Eng
Язык : English

Меню
00:00:00.000 : :Chapter 01
00:03:24.037 : :Chapter 02
00:05:07.222 : :Chapter 03
00:09:33.405 : :Chapter 04
00:13:08.703 : :Chapter 05
00:15:55.329 : :Chapter 06
00:18:22.643 : :Chapter 07
00:22:23.717 : :Chapter 08
00:25:56.554 : :Chapter 09
00:29:17.964 : :Chapter 10
00:32:57.600 : :Chapter 11
00:36:14.380 : :Chapter 12
00:38:41.652 : :Chapter 13
00:43:48.708 : :Chapter 14
00:45:29.643 : :Chapter 15
00:49:38.976 : :Chapter 16
00:53:49.476 : :Chapter 17
00:57:22.856 : :Chapter 18
01:02:31.037 : :Chapter 19
01:08:08.334 : :Chapter 20
01:11:10.474 : :Chapter 21
01:13:14.640 : :Chapter 22
01:16:53.399 : :Chapter 23
01:19:23.633 : :Chapter 24
01:27:45.051 : :Chapter 25
x264 [info]: frame I:1267 Avg QP:16.25 size:209034
x264 [info]: frame P:33052 Avg QP:18.90 size: 57964
x264 [info]: frame B:91922 Avg QP:21.13 size: 19509



   Похожие торренты   Торрент   Размер 
В этой теме нет новых непрочитанных сообщений. Ледниковый период 4: Континентальный дрейф / Ice Age: Continental Drift (2012) BDRip 1080p | 3D-Video | D

386 | 23

7.37 ГБ

В этой теме нет новых непрочитанных сообщений. Ледниковый период 4: Континентальный дрейф / Ice Age: Continental Drift (2012) BDRip 1080p | Лицензия

28 | 10

8.54 ГБ

В этой теме нет новых непрочитанных сообщений. Ледниковый период 4: Континентальный дрейф / Ice Age: Continental Drift (2012) BDRip 1080p [Hi10P] от FREEISLAND

70 | 8

4.37 ГБ

В этой теме нет новых непрочитанных сообщений. Ледниковый период 4: Континентальный дрейф / Ice Age: Continental Drift (2012) Blu-ray 1080p от Youtracker | лицензия

4 | 7

40.29 ГБ

В этой теме нет новых непрочитанных сообщений. Ледниковый период 4: Континентальный дрейф / Ice Age: Continental Drift (2012) BDRip-AVC от ExKinoRay

176 | 12

2 ГБ

В этой теме нет новых непрочитанных сообщений. Ледниковый период 4: Континентальный дрейф / Ice Age: Continental Drift (2012) BDRip-AVC | iPad

106 | 10

1.55 ГБ

В этой теме нет новых непрочитанных сообщений. Ледниковый период 4: Континентальный дрейф / Ice Age: Continental Drift (2012) BDRip от HELLYWOOD

528 | 21

1.45 ГБ




Вы не можете начинать темы
Вы не можете отвечать на сообщения
Вы не можете редактировать свои сообщения
Вы не можете удалять свои сообщения
Вы не можете добавлять вложения

Перейти:  
Для Мосгорсуда, Роскомнадзора и рекламодателей: mosgorsud-torrent[собачка]yandex.ru
 Вход
ppkBB3cker v.2 © 2008-2014 @ PPK
[ Time : 0.033s | 14 Queries | GZIP : Off ]

Торрент трекер RUTOR.IN, Не можете зайти на rutor.org? Какой новый адрес рутор? Какое зеркало рутор? Не работает rutor.org и зеркала? Тогда наш торрент специально для вас. Rutor.in неофициальное зеркало rutor. В случае если у Вас заблокирован rutor или вдруг Вы не можете на него зайти, то Вы без труда сможете скачать бесплатно и без рекламы последние новинки кино, игр, сериалов и прочего у нас, на Rutor.in. Не нужно использовать прокси, чтобы зайти на рутор, достаточно воспользоваться нашим ресурсом. Все новые фильмы, игры, сериалы, книги и музыка за 2013 и 2014 годы через торрент бесплатно. Скачивайте фильмы в хорошем качестве, игры для пк, xbox, playstation без регистрации. У нас вы найдете новые Зарубежные сериалы и Русские сериалы 2013, 2014, 2015 годов. Оставайтесь с нами, качайте любимые фильмы, игры, сериалы, книги и музыку.