img image001 image001 image001 image001 image001 image001 image001 image001 image001 image001 image001 image001 image001 image001 image001

Planets Sun Sun Sun
Статистика раздачи
Автор: Снежана | Размер: 2.19 ГБ | Добавлен: 27 июл 2013
Раздают: 11    Качают: 4
Скачать торрент
Скачать торрент
Описание торрента

СообщениеДобавлено: 27 июл 2013 

#77

Часть 1
Страна: Франция
Студия: CYBER GROOP STUDIOS
Год выпуска: 2010
Жанр: мультфильм, семейный
Продолжительность: 13 серий ~ 13 минут (02:46:43)

Субтитры: нет
Перевод: Профессиональный (дублированный)
Оригинальная аудиодорожка: нет

Озвучивали: неизвестно...

Режиссер: Оливье Лелардо / Olivier Lelardoux

Описание: Ванджи, Нумпа, Ямпи и Топа — четыре любознательных волчонка, которые живут со своими родителями в стае в лесах Северной Америки. Наши маленькие герои познают мир со сменой времен года. Они учатся основам жизни в стае, семейным ценностям, а так же пытаются познакомиться с новыми друзьями. Но внезапно их мир меняется! Их друг Татонка, одинокий симпатичный бизончик, приглашает их в увлекательное путешествие по новым, неизведанным местам. Волчата начинают свой путь, полный таинственных загадок, удивительных открытий и невероятных приключений!





Источник: DVD9 R5
Качество видео: DVDRip
Формат видео: AVI

Видео: 720x400 (16:9), 25 fps, XViD ~ 1678 kbps avg, 0.233 bit/pixel
Аудио: 48 kHz, AC3, 2 ch, 192.00 kbps Русский
Выпуск 1
01. Опустевшая река
02. Спасение Унса
03. Самый отважный трусишка
04. Путь по следам
05. Лесной пожар
06. Похититель шишек
07. Предчувствие опасности
08. Один за нас
09. Начало радуги
10. Нападение с воздуха
11. Легенда о ледяной пещере
12. Сила убеждения
13. Великий Дух Леса

Общее
Полное имя : Tatonka.2010.D.DVDRip_[Youtracker]_by_avproh\01.avi
Формат : AVI
Формат/Информация : Audio Video Interleave
Размер файла : 175 Мбайт
Продолжительность : 13 м.
Общий поток : 1880 Кбит/сек
Программа кодирования : VirtualDubMod 1.5.10.3 (build 2550/release)
Библиотека кодирования : VirtualDubMod build 2550/release

Видео
Идентификатор : 0
Формат : MPEG-4 Visual
Профиль формата : Advanced Simple@L5
Параметр BVOP формата : 1
Параметр QPel формата : Нет
Параметр GMC формата : Без точки перехода
Параметр матрицы формата : Выборочная
Идентификатор кодека : XVID
Идентификатор кодека/Подсказка : XviD
Продолжительность : 13 м.
Битрейт : 1678 Кбит/сек
Ширина : 720 пикселей
Высота : 400 пикселей
Соотношение сторон : 16:9
Частота кадров : 25,000 кадров/сек
Цветовое пространство : YUV
Субдискретизация насыщенности : 4:2:0
Битовая глубина : 8 бит
Тип развёртки : Прогрессивная
Метод сжатия : С потерями
Бит/(Пиксели*Кадры) : 0.233
Размер потока : 156 Мбайт (89%)
Библиотека кодирования : XviD 65

Аудио
Идентификатор : 1
Формат : AC-3
Формат/Информация : Audio Coding 3
Расширение режима : CM (complete main)
Параметр Endianness формата : Big
Идентификатор кодека : 2000
Продолжительность : 13 м.
Вид битрейта : Постоянный
Битрейт : 192 Кбит/сек
Каналы : 2 канала
Расположение каналов : Front: L R
Частота : 48,0 КГц
Битовая глубина : 16 бит
Метод сжатия : С потерями
Размер потока : 17,9 Мбайт (10%)
Выравнивание : Разделение по промежуткам
Продолжительность промежутка : 40 мс. (1,00 видеокадр)
Время предзагрузки промежутка : 500 мс.





   Похожие торренты   Торрент   Размер 
В этой теме нет новых непрочитанных сообщений. Татонка / Les Legendes De Tatonka. Часть 1 [01-13 из 13] (2010) DVDRip-AVC от Youtracker | D

6 | 3

2.18 ГБ

В этой теме нет новых непрочитанных сообщений. Татонка / Les Legendes De Tatonka. Часть 1 [01-13 из 13] (2010) DVD9 R5 от Youtracker | D | лицензия

2 | 2

7.1 ГБ

В этой теме нет новых непрочитанных сообщений. Метроном. История Франции / Metronome. Mysteres, Legendes et Histoire de France [01-04 из 04] (2012) DVDRip от Filmoff CLUB

13 | 2

2.74 ГБ

В этой теме нет новых непрочитанных сообщений. Шапито-шоу: Любовь и дружба / Уважение и сотрудничество. Часть 01-02 (2011) DVDRip от Youtracker

76 | 4

1.46 ГБ

В этой теме нет новых непрочитанных сообщений. Подводное расследование: Зимние блесны и балансиры. Часть 1. № 68 (2010) DVDRip

7 | 2

447.95 МБ

В этой теме нет новых непрочитанных сообщений. Татьяна и Сергей Никитины - Концерт в Доме музыки 27 февраля 2010 год (2010) DVDRip от Youtracker

14 | 4

1.46 ГБ

В этой теме нет новых непрочитанных сообщений. Татьяна и Сергей Никитины - Концерт в Доме музыки 27 февраля 2010 год (2010) DVDRip от Youtracker

8 | 3

745.09 МБ




Вы не можете начинать темы
Вы не можете отвечать на сообщения
Вы не можете редактировать свои сообщения
Вы не можете удалять свои сообщения
Вы не можете добавлять вложения

Перейти:  
Для Мосгорсуда, Роскомнадзора и рекламодателей: mosgorsud-torrent[собачка]yandex.ru
 Вход
ppkBB3cker v.2 © 2008-2014 @ PPK
[ Time : 0.029s | 15 Queries | GZIP : Off ]

Торрент трекер RUTOR.IN, Не можете зайти на rutor.org? Какой новый адрес рутор? Какое зеркало рутор? Не работает rutor.org и зеркала? Тогда наш торрент специально для вас. Rutor.in неофициальное зеркало rutor. В случае если у Вас заблокирован rutor или вдруг Вы не можете на него зайти, то Вы без труда сможете скачать бесплатно и без рекламы последние новинки кино, игр, сериалов и прочего у нас, на Rutor.in. Не нужно использовать прокси, чтобы зайти на рутор, достаточно воспользоваться нашим ресурсом. Все новые фильмы, игры, сериалы, книги и музыка за 2013 и 2014 годы через торрент бесплатно. Скачивайте фильмы в хорошем качестве, игры для пк, xbox, playstation без регистрации. У нас вы найдете новые Зарубежные сериалы и Русские сериалы 2013, 2014, 2015 годов. Оставайтесь с нами, качайте любимые фильмы, игры, сериалы, книги и музыку.