img image001 image001 image001 image001 image001 image001 image001 image001 image001 image001 image001 image001 image001 image001 image001

Planets Sun Sun Sun
Статистика раздачи
Автор: Снежана | Размер: 2.18 ГБ | Добавлен: 27 июл 2013
Раздают: 6    Качают: 3
Скачать торрент
Скачать торрент
Описание торрента

СообщениеДобавлено: 27 июл 2013 

#77

Часть 1
Страна: Франция
Студия: CYBER GROOP STUDIOS
Год выпуска: 2010
Жанр: мультфильм, семейный
Продолжительность: 13 серий ~ 13 минут (02:46:43)

Субтитры: нет
Перевод: Профессиональный (дублированный)
Оригинальная аудиодорожка: нет

Озвучивали: неизвестно...

Режиссер: Оливье Лелардо / Olivier Lelardoux

Описание: Ванджи, Нумпа, Ямпи и Топа — четыре любознательных волчонка, которые живут со своими родителями в стае в лесах Северной Америки. Наши маленькие герои познают мир со сменой времен года. Они учатся основам жизни в стае, семейным ценностям, а так же пытаются познакомиться с новыми друзьями. Но внезапно их мир меняется! Их друг Татонка, одинокий симпатичный бизончик, приглашает их в увлекательное путешествие по новым, неизведанным местам. Волчата начинают свой путь, полный таинственных загадок, удивительных открытий и невероятных приключений!





Источник: DVD9 R5
Качество видео: DVDRip-AVC
Формат видео: MKV

Видео: 720x568@1008x568 (16:9), 25 fps, H264 ~ 1682 kbps avg, 0.165 bit/pixel
Аудио: 48 kHz, AC3, 2 ch, 192.00 kbps Русский
Выпуск 1
01. Опустевшая река
02. Спасение Унса
03. Самый отважный трусишка
04. Путь по следам
05. Лесной пожар
06. Похититель шишек
07. Предчувствие опасности
08. Один за нас
09. Начало радуги
10. Нападение с воздуха
11. Легенда о ледяной пещере
12. Сила убеждения
13. Великий Дух Леса

Общее
Полное имя : Tatonka.2010.D.DVDRip-AVC_[Youtracker]_by_avproh�1.mkv
Формат : Matroska
Версия формата : Version 2
Размер файла : 174 Мбайт
Продолжительность : 13 м.
Общий поток : 1875 Кбит/сек
Дата кодирования : UTC 2012-10-31 15:12:49
Программа кодирования : mkvmerge v5.8.0 ('No Sleep / Pillow') built on Sep 2 2012 15:37:04
Библиотека кодирования : libebml v1.2.3 + libmatroska v1.3.0

Видео
Идентификатор : 1
Формат : AVC
Формат/Информация : Advanced Video Codec
Профиль формата : High@L4.1
Параметр CABAC формата : Да
Параметр ReFrames формата : 11 кадров
Идентификатор кодека : V_MPEG4/ISO/AVC
Продолжительность : 13 м.
Битрейт : 1682 Кбит/сек
Ширина : 720 пикселей
Высота : 568 пикселей
Соотношение сторон : 16:9
Соотношение сторон в оригинале : 16:9
Частота кадров : 25,000 кадров/сек
Цветовое пространство : YUV
Субдискретизация насыщенности : 4:2:0
Битовая глубина : 8 бит
Тип развёртки : Прогрессивная
Бит/(Пиксели*Кадры) : 0.165
Размер потока : 153 Мбайт (88%)
Библиотека кодирования : x264 core 119 r2106 07efeb4
Настройки программы : cabac=1 / ref=11 / deblock=1:-2:-1 / analyse=0x3:0x113 / me=umh / subme=9 / psy=1 / psy_rd=1.00:0.10 / mixed_ref=1 / me_range=32 / chroma_me=1 / trellis=2 / 8x8dct=1 / cqm=0 / deadzone=21,11 / fast_pskip=1 / chroma_qp_offset=-3 / threads=6 / sliced_threads=0 / nr=0 / decimate=1 / interlaced=0 / bluray_compat=0 / constrained_intra=0 / bframes=10 / b_pyramid=2 / b_adapt=2 / b_bias=0 / direct=3 / weightb=1 / open_gop=0 / weightp=2 / keyint=240 / keyint_min=24 / scenecut=40 / intra_refresh=0 / rc_lookahead=80 / rc=2pass / mbtree=1 / bitrate=1682 / ratetol=1.0 / qcomp=0.60 / qpmin=0 / qpmax=69 / qpstep=4 / cplxblur=20.0 / qblur=0.5 / ip_ratio=1.40 / aq=2:0.90
Язык : English
Default : Да
Forced : Нет

Аудио
Идентификатор : 2
Формат : AC-3
Формат/Информация : Audio Coding 3
Расширение режима : CM (complete main)
Параметр Endianness формата : Big
Идентификатор кодека : A_AC3
Продолжительность : 13 м.
Вид битрейта : Постоянный
Битрейт : 192 Кбит/сек
Каналы : 2 канала
Расположение каналов : Front: L R
Частота : 48,0 КГц
Битовая глубина : 16 бит
Метод сжатия : С потерями
Размер потока : 17,9 Мбайт (10%)
Язык : Russian
Default : Да
Forced : Нет





   Похожие торренты   Торрент   Размер 
В этой теме нет новых непрочитанных сообщений. Татонка / Les Legendes De Tatonka. Часть 1 [01-13 из 13] (2010) DVDRip от Youtracker | D

11 | 4

2.19 ГБ

В этой теме нет новых непрочитанных сообщений. Татонка / Les Legendes De Tatonka. Часть 1 [01-13 из 13] (2010) DVD9 R5 от Youtracker | D | лицензия

2 | 2

7.1 ГБ

В этой теме нет новых непрочитанных сообщений. Шапито-шоу: Любовь и дружба / Уважение и сотрудничество. Часть 01-02 (2011) DVDRip от Youtracker

76 | 4

1.46 ГБ

В этой теме нет новых непрочитанных сообщений. Метроном. История Франции / Metronome. Mysteres, Legendes et Histoire de France [01-04 из 04] (2012) DVDRip от Filmoff CLUB

13 | 2

2.74 ГБ

В этой теме нет новых непрочитанных сообщений. Подводное расследование: Зимние блесны и балансиры. Часть 1. № 68 (2010) DVDRip

7 | 2

447.95 МБ

В этой теме нет новых непрочитанных сообщений. Бюро легенд / Le Bureau des Légendes [01х01 из 10] (2015) HDTVRip от GeneralFilm | Первый канал

7 | 5

1.36 ГБ

В этой теме нет новых непрочитанных сообщений. Бюро легенд / Le Bureau des Légendes [01х01 из 10] (2015) HDTVRip от GeneralFilm | Первый канал

2 | 4

698.81 МБ




Вы не можете начинать темы
Вы не можете отвечать на сообщения
Вы не можете редактировать свои сообщения
Вы не можете удалять свои сообщения
Вы не можете добавлять вложения

Перейти:  
Для Мосгорсуда, Роскомнадзора и рекламодателей: mosgorsud-torrent[собачка]yandex.ru
 Вход
ppkBB3cker v.2 © 2008-2014 @ PPK
[ Time : 2.527s | 15 Queries | GZIP : Off ]

Торрент трекер RUTOR.IN, Не можете зайти на rutor.org? Какой новый адрес рутор? Какое зеркало рутор? Не работает rutor.org и зеркала? Тогда наш торрент специально для вас. Rutor.in неофициальное зеркало rutor. В случае если у Вас заблокирован rutor или вдруг Вы не можете на него зайти, то Вы без труда сможете скачать бесплатно и без рекламы последние новинки кино, игр, сериалов и прочего у нас, на Rutor.in. Не нужно использовать прокси, чтобы зайти на рутор, достаточно воспользоваться нашим ресурсом. Все новые фильмы, игры, сериалы, книги и музыка за 2013 и 2014 годы через торрент бесплатно. Скачивайте фильмы в хорошем качестве, игры для пк, xbox, playstation без регистрации. У нас вы найдете новые Зарубежные сериалы и Русские сериалы 2013, 2014, 2015 годов. Оставайтесь с нами, качайте любимые фильмы, игры, сериалы, книги и музыку.
cron