img image001 image001 image001 image001 image001 image001 image001 image001 image001 image001 image001 image001 image001 image001 image001

Planets Sun Sun Sun
Статистика раздачи
Автор: Снежана | Размер: 6.48 ГБ | Добавлен: 27 июл 2013
Раздают: 16    Качают: 3
Скачать торрент
Скачать торрент
Описание торрента

СообщениеДобавлено: 27 июл 2013 

#77

Информация о фильме
Название: Обитель зла: Проклятие
Оригинальное название: Resident Evil: Damnation / Biohazard: Damnation
Год выхода: 2012
Жанр: Мультфильм, ужасы, фантастика, боевик, триллер
Режиссер: Макото Камия
В ролях: Мэттью Мерсер, Дейв Уиттенберг, Уэнди Ли, Вэл Тассо, Робин Сакс, Кортни Тейлор, Салли Саффиоти, Дэвид Эрнест, Патрик Сэйтц, Майкл МакКоннохи, Патрик Хэрлан, Кэролин Лоуренс

О фильме:
Продолжение популярной компьютерной анимации «Обитель зла: Вырождение». Леон Кеннеди отправляется в Восточную Европу на борьбу с монстрами — порождениями корпорации Амбрела. Больше монстров, больше пушек, больше экшена.

Официальный сайт

Страна: Япония
Студия: Capcom Company, Digital Frontier, Sony Pictures Entertainment
Продолжительность: 01:40:02
Перевод: Профессиональный (многоголосый, закадровый) |Blu-ray CEE| + Английская звуковая дорожка

Файл
Кодек: x264
Качество: BDRip 1080p (источник: Mont Blu-ray disc 1080p CEE)
Видео: 1920х1080 (16:9), 8000 Kbps, 23.976 fps, 0.161 bit/pixel
Аудио #1: 48.0 kHz, AC3 Dolby Digital, 3/2 (L,C,R,l,r) + LFE ch, 640 kbps avg [Rus]
Аудио #2: 48.0 kHz, AC3 Dolby Digital, 3/2 (L,C,R,l,r) + LFE ch, 640 kbps avg [Eng]
Субтитры: Русские, украинские, английские

Семпл




x264 [info]: frame I:939 Avg QP:16.45 size:199767
x264 [info]: frame P:40375 Avg QP:20.37 size: 63776
x264 [info]: frame B:102590 Avg QP:21.86 size: 31548
Enable slow first pass
Включен "медленный" первый проход.
Только при первом проходе и если нужно получить максимальное качество. Очень замедляет кодирование.
Отключает следующие, ускоряющие первый проход, ключи: --no-8x8dct --me dia --partitions none --ref 1 --subme 2 --trellis 0
В MediaInfo не отображается.

General
Unique ID : 222721962284254614508734998845901723025 (0xA78EB08C7B860F168FDD8B481C7B5591)
Complete name : D:Resident.Evil.Damnation.2012.x264.BDRip.1080p.mkv
Format : Matroska
Format version : Version 2
File size : 6.48 GiB
Duration : 1h 40mn
Overall bit rate : 9 278 Kbps
Movie name : Resident Evil: Damnation (2012) BDRip 1080p
Encoded date : UTC 2012-11-01 05:01:55
Writing application : mkvmerge v5.8.0 ('No Sleep / Pillow') built on Sep 2 2012 15:37:04
Writing library : libebml v1.2.3 + libmatroska v1.3.0

Video
ID : 1
Format : AVC
Format/Info : Advanced Video Codec
Format profile : High@L4.1
Format settings, CABAC : Yes
Format settings, ReFrames : 4 frames
Codec ID : V_MPEG4/ISO/AVC
Duration : 1h 40mn
Bit rate : 8 000 Kbps
Width : 1 920 pixels
Height : 1 080 pixels
Display aspect ratio : 16:9
Frame rate mode : Constant
Frame rate : 23.976 fps
Color space : YUV
Chroma subsampling : 4:2:0
Bit depth : 8 bits
Scan type : Progressive
Bits/(Pixel*Frame) : 0.161
Stream size : 5.46 GiB (84%)
Writing library : x264 core 128 r2216 198a7ea
Encoding settings : cabac=1 / ref=4 / deblock=1:-3:-3 / analyse=0x3:0x133 / me=umh / subme=11 / psy=1 / psy_rd=1.00:0.12 / mixed_ref=1 / me_range=64 / chroma_me=1 / trellis=2 / 8x8dct=1 / cqm=0 / deadzone=21,11 / fast_pskip=0 / chroma_qp_offset=-3 / threads=6 / lookahead_threads=1 / sliced_threads=0 / nr=0 / decimate=0 / interlaced=0 / bluray_compat=0 / constrained_intra=0 / bframes=5 / b_pyramid=2 / b_adapt=2 / b_bias=0 / direct=3 / weightb=1 / open_gop=0 / weightp=2 / keyint=240 / keyint_min=23 / scenecut=40 / intra_refresh=0 / rc_lookahead=60 / rc=2pass / mbtree=1 / bitrate=8000 / ratetol=1.0 / qcomp=0.60 / qpmin=0 / qpmax=69 / qpstep=4 / cplxblur=20.0 / qblur=0.5 / ip_ratio=1.40 / aq=1:0.80
Language : Japanese
Default : Yes
Forced : No

Audio #1
ID : 2
Format : AC-3
Format/Info : Audio Coding 3
Mode extension : CM (complete main)
Format settings, Endianness : Big
Codec ID : A_AC3
Duration : 1h 40mn
Bit rate mode : Constant
Bit rate : 640 Kbps
Channel(s) : 6 channels
Channel positions : Front: L C R, Side: L R, LFE
Sampling rate : 48.0 KHz
Bit depth : 16 bits
Compression mode : Lossy
Stream size : 458 MiB (7%)
Title : AC3 5.1ch 640 kbps - многоголосый, закадровый |Blu-ray CEE|
Language : Russian
Default : Yes
Forced : No

Audio #2
ID : 3
Format : AC-3
Format/Info : Audio Coding 3
Mode extension : CM (complete main)
Format settings, Endianness : Big
Codec ID : A_AC3
Duration : 1h 40mn
Bit rate mode : Constant
Bit rate : 640 Kbps
Channel(s) : 6 channels
Channel positions : Front: L C R, Side: L R, LFE
Sampling rate : 48.0 KHz
Bit depth : 16 bits
Compression mode : Lossy
Stream size : 458 MiB (7%)
Title : AC3 5.1ch 640 kbps - Английский
Language : English
Default : No
Forced : No

Text #1
ID : 4
Format : UTF-8
Codec ID : S_TEXT/UTF8
Codec ID/Info : UTF-8 Plain Text
Title : Русские
Language : Russian
Default : No
Forced : No

Text #2
ID : 5
Format : UTF-8
Codec ID : S_TEXT/UTF8
Codec ID/Info : UTF-8 Plain Text
Title : Украинские
Language : Ukrainian
Default : No
Forced : No

Text #3
ID : 6
Format : UTF-8
Codec ID : S_TEXT/UTF8
Codec ID/Info : UTF-8 Plain Text
Title : Английские
Language : English
Default : No
Forced : No

Menu
00:00:00.000 : en:Chapter 1
00:05:32.999 : en:Chapter 2
00:12:53.481 : en:Chapter 3
00:18:27.898 : en:Chapter 4
00:23:51.972 : en:Chapter 5
00:30:03.885 : en:Chapter 6
00:36:00.992 : en:Chapter 7
00:41:54.303 : en:Chapter 8
00:49:30.008 : en:Chapter 9
00:53:57.859 : en:Chapter 10
00:58:38.806 : en:Chapter 11
01:04:52.596 : en:Chapter 12
01:13:41.083 : en:Chapter 13
01:17:42.282 : en:Chapter 14
01:23:17.200 : en:Chapter 15
01:28:18.376 : en:Chapter 16



   Похожие торренты   Торрент   Размер 
В этой теме нет новых непрочитанных сообщений. Обитель зла: Проклятие / Resident Evil: Damnation / Biohazard: Damnation (2012) BDRip 1080p

18 | 6

5.76 ГБ

В этой теме нет новых непрочитанных сообщений. Обитель зла Проклятие / Biohazard Damnation / Resident Evil Damnation (2012) Blu-ray disc 1080p CEE

0 | 4

32.97 ГБ

В этой теме нет новых непрочитанных сообщений. Обитель зла: Проклятие / Resident Evil: Damnation / Biohazard: Damnation (2012) BDRip-AVC | Лицензия

9 | 4

899.49 МБ

В этой теме нет новых непрочитанных сообщений. Обитель зла: Проклятие / Resident Evil: Damnation / Biohazard: Damnation (2012) BDRip-AVC от potroks | P

35 | 3

2.18 ГБ

В этой теме нет новых непрочитанных сообщений. Обитель зла: Проклятие / Resident Evil: Damnation / Biohazard: Damnation (2012) BDRip 720p | Лицензия

36 | 8

4.63 ГБ

В этой теме нет новых непрочитанных сообщений. Обитель зла: Проклятие / Resident Evil: Damnation / Biohazard: Damnation (2012) BDRip от HQ-ViDEO | Лицензия

30 | 1

1.45 ГБ

В этой теме нет новых непрочитанных сообщений. Обитель зла: Проклятие / Resident Evil: Damnation / Biohazard: Damnation (2012) BDRip 720p от Leonardo and Scarabey | Лицензия

203 | 27

3.12 ГБ




Вы не можете начинать темы
Вы не можете отвечать на сообщения
Вы не можете редактировать свои сообщения
Вы не можете удалять свои сообщения
Вы не можете добавлять вложения

Перейти:  
Для Мосгорсуда, Роскомнадзора и рекламодателей: mosgorsud-torrent[собачка]yandex.ru
 Вход
ppkBB3cker v.2 © 2008-2014 @ PPK
[ Time : 0.099s | 16 Queries | GZIP : Off ]

Торрент трекер RUTOR.IN, Не можете зайти на rutor.org? Какой новый адрес рутор? Какое зеркало рутор? Не работает rutor.org и зеркала? Тогда наш торрент специально для вас. Rutor.in неофициальное зеркало rutor. В случае если у Вас заблокирован rutor или вдруг Вы не можете на него зайти, то Вы без труда сможете скачать бесплатно и без рекламы последние новинки кино, игр, сериалов и прочего у нас, на Rutor.in. Не нужно использовать прокси, чтобы зайти на рутор, достаточно воспользоваться нашим ресурсом. Все новые фильмы, игры, сериалы, книги и музыка за 2013 и 2014 годы через торрент бесплатно. Скачивайте фильмы в хорошем качестве, игры для пк, xbox, playstation без регистрации. У нас вы найдете новые Зарубежные сериалы и Русские сериалы 2013, 2014, 2015 годов. Оставайтесь с нами, качайте любимые фильмы, игры, сериалы, книги и музыку.
cron