img image001 image001 image001 image001 image001 image001 image001 image001 image001 image001 image001 image001 image001 image001 image001

Planets Sun Sun Sun
Статистика раздачи
Автор: Снежана | Размер: 744.49 МБ | Добавлен: 27 июл 2013
Раздают: 2    Качают: 6
Скачать торрент
Скачать торрент
Описание торрента

СообщениеДобавлено: 27 июл 2013 

#77
Год выпуска: 2012
Страна: США
Студия: Nest Entertainment
Продолжительность: 01:20:41

Перевод: Профессиональный (многоголосый закадровый)
Субтитры: нет
Жанр: мультфильм, мюзикл, фэнтези, приключения
Оригинальная аудиодорожка: нет

Режиссер: Ричард Рич / Richard Rich

Роли озвучивали: Юрий Ловенталь, Дэвид Лодж, Саммер Егучи, Даг Стоун, Брайан Ниссен, Сэм Стоун, Клэйтон Маккэй, Michaelangelo, Джеймс Аррингтон, Joey Lotsko...

Описание: Мультипликационный фильм "Принцесса-лебедь: Рождество" режиссера Ричарда Рича создан по мотивам знаменитого балета "Лебединое озеро". Это четвертый, последний анимационный фильм из серии фильмов о "Принцессе-лебеде".
Все герои этой фантастической истории счастливо живут в старинном замке прямо на Лебедином озере. Принц Дерек и принцесса Одетт влюблены друг в друга. Дерек и Одетт решают в королевском замке отметить вместе свои первые рождественские праздники. Но злой колдун Ротбарт решает испортить им Рождество и на помощь себе призывает темную магию. Однако, сила любви и праздничный рождественский дух побеждают силы зла...





Исходник: DVD5 R5
Тип релиза: DVDRip
Контейнер: AVI

Видео: 720x400 (16:9), 25 fps, XviD ~ 1152 kbps avg, 0.160 bit/pixel
Аудио: 48 kHz, MP3, 2 ch, 128.00 kbps Русский

Раздача от:
Общее
Полное имя : Princessa-lebed'.Rozhdestvo.2012.DVDRip.745_[Youtracker]_by_AVP Studio.avi
Формат : AVI
Формат/Информация : Audio Video Interleave
Размер файла : 744 Мбайт
Продолжительность : 1 ч. 20 м.
Общий поток : 1290 Кбит/сек
Программа кодирования : VirtualDubMod 1.5.10.3 | www.virtualdub-fr.org || (build 2550/release)
Библиотека кодирования : VirtualDubMod build 2550/release

Видео
Идентификатор : 0
Формат : MPEG-4 Visual
Профиль формата : Advanced Simple@L5
Параметр BVOP формата : 1
Параметр QPel формата : Нет
Параметр GMC формата : Без точки перехода
Параметр матрицы формата : Выборочная
Идентификатор кодека : XVID
Идентификатор кодека/Подсказка : XviD
Продолжительность : 1 ч. 20 м.
Битрейт : 1152 Кбит/сек
Ширина : 720 пикселей
Высота : 400 пикселей
Соотношение сторон : 16:9
Частота кадров : 25,000 кадров/сек
Цветовое пространство : YUV
Субдискретизация насыщенности : 4:2:0
Битовая глубина : 8 бит
Тип развёртки : Прогрессивная
Метод сжатия : С потерями
Бит/(Пиксели*Кадры) : 0.160
Размер потока : 665 Мбайт (89%)
Библиотека кодирования : XviD 65

Аудио
Идентификатор : 1
Формат : MPEG Audio
Версия формата : Version 1
Профиль формата : Layer 3
Идентификатор кодека : 55
Идентификатор кодека/Подсказка : MP3
Продолжительность : 1 ч. 20 м.
Вид битрейта : Постоянный
Битрейт : 128 Кбит/сек
Каналы : 2 канала
Частота : 48,0 КГц
Метод сжатия : С потерями
Размер потока : 73,9 Мбайт (10%)
Выравнивание : Соединение по промежуткам
Продолжительность промежутка : 40 мс. (1,00 видеокадр)
Время предзагрузки промежутка : 504 мс.
Библиотека кодирования : L3.99r
Настройки программы : -m s -V 4 -q 2 -lowpass 17 -b 128





   Похожие торренты   Торрент   Размер 
В этой теме нет новых непрочитанных сообщений. Принцесса-лебедь: Рождество / The Swan Princess Christmas (2012) DVDRip-AVC от Youtracker | P

17 | 2

1.46 ГБ

В этой теме нет новых непрочитанных сообщений. Принцесса-лебедь: Рождество / The Swan Princess Christmas (2012) DVDRip от Youtracker | P

53 | 9

1.46 ГБ

В этой теме нет новых непрочитанных сообщений. Принцесса-лебедь: Рождество / The Swan Princess Christmas (2012) DVD5 от Youtracker | P | лицензия

0 | 4

4.17 ГБ

В этой теме нет новых непрочитанных сообщений. Принцесса Лебедь: Пират или принцесса? / The Swan Princess: Princess Tomorrow, Pirate Today! (2016) WEB-DL 720p | iTunes

385 | 84

2.51 ГБ

В этой теме нет новых непрочитанных сообщений. Принцесса Лебедь: Пират или принцесса? / The Swan Princess: Princess Tomorrow, Pirate Today! (2016) WEB-DLRip | iTunes

581 | 44

1.37 ГБ

В этой теме нет новых непрочитанных сообщений. Принцесса Лебедь: Пират или принцесса? / The Swan Princess: Princess Tomorrow, Pirate Today! (2016) WEB-DLRip от MegaPeer | iTunes

151 | 33

744.58 МБ

В этой теме нет новых непрочитанных сообщений. Принцесса-лебедь / The Swan Princess (1994) DVDRip

78 | 11

693.89 МБ




Вы не можете начинать темы
Вы не можете отвечать на сообщения
Вы не можете редактировать свои сообщения
Вы не можете удалять свои сообщения
Вы не можете добавлять вложения

Перейти:  
Для Мосгорсуда, Роскомнадзора и рекламодателей: mosgorsud-torrent[собачка]yandex.ru
 Вход
ppkBB3cker v.2 © 2008-2014 @ PPK
[ Time : 0.040s | 16 Queries | GZIP : Off ]

Торрент трекер RUTOR.IN, Не можете зайти на rutor.org? Какой новый адрес рутор? Какое зеркало рутор? Не работает rutor.org и зеркала? Тогда наш торрент специально для вас. Rutor.in неофициальное зеркало rutor. В случае если у Вас заблокирован rutor или вдруг Вы не можете на него зайти, то Вы без труда сможете скачать бесплатно и без рекламы последние новинки кино, игр, сериалов и прочего у нас, на Rutor.in. Не нужно использовать прокси, чтобы зайти на рутор, достаточно воспользоваться нашим ресурсом. Все новые фильмы, игры, сериалы, книги и музыка за 2013 и 2014 годы через торрент бесплатно. Скачивайте фильмы в хорошем качестве, игры для пк, xbox, playstation без регистрации. У нас вы найдете новые Зарубежные сериалы и Русские сериалы 2013, 2014, 2015 годов. Оставайтесь с нами, качайте любимые фильмы, игры, сериалы, книги и музыку.
cron