img image001 image001 image001 image001 image001 image001 image001 image001 image001 image001 image001 image001 image001 image001 image001

Planets Sun Sun Sun
Статистика раздачи
Автор: Снежана | Размер: 4.37 ГБ | Добавлен: 27 июл 2013
Раздают: 70    Качают: 8
Скачать торрент
Скачать торрент
Описание торрента

СообщениеДобавлено: 27 июл 2013 

Ледниковый период 4: Континентальный дрейф
Ice Age: Continental Drift
(2012)
BDRip 1080p [Hi10P] от FREEISLAND




Жанр: мультфильм

Режиссер: Стив Мартино, Майк Трумейер

Роли дублировали (рус):
Антон Комолов, Александр Груздев, Степан Старчиков, Ольга Шелест, Иван Охлобыстин, Александр Невский, Андрей Бархударов, Илья Бледный, Вероника Саркисова, Альбина Джанабаева, Александра Назарова, Даниил Эльдаров

Описание:
Стремление Скрэта за орехом, за которым он бегает с незапамятных времен, приводит к последствиям мирового масштаба - континентальным катаклизмам, которые знаменуют начало величайшего из всех путешествия Мэнни, Диего и Сида. Во время сдвигов континентальных пластов Сид воссоединяется со своей сварливой бабулей, и стадо сталкивается со зверинцем пиратов, которые хотят помешать им вернуться домой.



Официальный сайт

Страна: США
Выпущено: Blue Sky Studios
Продолжительность: 1 ч. 20 м. 56 с. (титры обрезаны в целях экономии битрейта, финальная песенка присутствует)
Перевод 1: Русский профессиональный (полное дублирование)
Перевод 2: Украинский профессиональный (полное дублирование)
Оригинальная разбивка на главы: сохранена

Внимание!

Рип в High 10 Profile, в настоящее время не поддерживается большинством аппаратных проигрывателей.
Для корректного воспроизведения может потребоваться обновление ПО.
Владельцам несовместимого железа просьба не беспокоить, на трекере есть альтернативные релизы.

Качество: BDRip 1080p Hi10P (SSIM: 0.9824204)
Исходник: Blu-Ray Disc
Контейнер: MKV
Видео кодек: x264 High10@L5.0
Аудио кодек: DTS, AC-3
Видео: AVC at 6518 Кбит/сек, 1920 x 800 (2.400) at 23.976 fps
Аудио RUS: DTS at 768 Кбит/сек, 6 каналов, 48,0 КГц (DUB)
Аудио UKR: AC-3 at 448 Кбит/сек, 6 каналов, 48,0 КГц (DUB)
Субтитры: русские, украинские, полные (SRT/UTF-8)


Общее
Уникальный идентификатор : 222475692796148515093243981772764410896 (0xA75F42868A9D55C68105EFD9507EF410)
Полное имя : Ледниковый период 4. Континентальный дрейф [Ice Age. Continental Drift] (2012) BDRip-Hi10P 1080p by_F.HD.mkv
Формат : Matroska
Версия формата : Version 2
Размер файла : 4,37 Гбайт
Продолжительность : 1 ч. 20 м.
Общий поток : 7734 Кбит/сек
Название фильма : релиз от FREEISLAND.ORG
Дата кодирования : UTC 2012-11-02 12:09:42
Программа кодирования : mkvmerge v5.8.0 ('No Sleep / Pillow') built on Sep 2 2012 15:37:04
Библиотека кодирования : libebml v1.2.3 + libmatroska v1.3.0

Видео
Идентификатор : 1
Формат : AVC
Формат/Информация : Advanced Video Codec
Профиль формата : High 10@L5.0
Параметр CABAC формата : Да
Параметр ReFrames формата : 16 кадров
Идентификатор кодека : V_MPEG4/ISO/AVC
Продолжительность : 1 ч. 20 м.
Битрейт : 6518 Кбит/сек
Ширина : 1920 пикселей
Высота : 800 пикселей
Соотношение сторон : 2,40:1
Частота кадров : 23,976 кадра/сек
Цветовое пространство : YUV
Субдискретизация насыщенности : 4:2:0
Битовая глубина : 10 бит
Тип развёртки : Прогрессивная
Бит/(Пиксели*Кадры) : 0.177
Размер потока : 3,61 Гбайт (82%)
Библиотека кодирования : x264 core 128 r2216+686+32 ed27f2d tMod [10-bit@all X86_64]
Настройки программы : cabac=1 / ref=16 / deblock=1:1:1 / analyse=0x3:0x133 / me=umh / subme=11 / psy=1 / fade_compensate=0.00 / psy_rd=1.00:0.00 / mixed_ref=1 / me_range=64 / chroma_me=1 / trellis=2 / 8x8dct=1 / cqm=0 / deadzone=21,11 / fast_pskip=0 / chroma_qp_offset=-2 / threads=12 / lookahead_threads=2 / sliced_threads=0 / nr=0 / decimate=1 / interlaced=0 / bluray_compat=0 / constrained_intra=0 / fgo=0 / bframes=9 / b_pyramid=2 / b_adapt=2 / b_bias=0 / direct=3 / weightb=1 / open_gop=0 / weightp=2 / keyint=248 / keyint_min=24 / scenecut=40 / intra_refresh=0 / rc_lookahead=0 / rc=2pass / mbtree=0 / bitrate=6518 / ratetol=1.0 / qcomp=1.00 / qpmin=0 / qpmax=48 / qpstep=4 / cplxblur=20.0 / qblur=0.5 / vbv_maxrate=240000 / vbv_bufsize=240000 / nal_hrd=none / ip_ratio=1.40 / pb_ratio=1.30 / aq=1:0.90
Default : Да
Forced : Нет
Основные цвета : BT.709-5, BT.1361, IEC 61966-2-4, SMPTE RP177
Характеристики трансфера : BT.709-5, BT.1361
Коэффициенты матрицы : BT.709-5, BT.1361, IEC 61966-2-4 709, SMPTE RP177

Аудио #1
Идентификатор : 2
Формат : DTS
Формат/Информация : Digital Theater Systems
Идентификатор кодека : A_DTS
Продолжительность : 1 ч. 20 м.
Вид битрейта : Постоянный
Битрейт : 755 Кбит/сек
Каналы : 6 каналов
Расположение каналов : Front: L C R, Side: L R, LFE
Частота : 48,0 КГц
Битовая глубина : 24 бит
Метод сжатия : С потерями
Размер потока : 437 Мбайт (10%)
Заголовок : DUB
Язык : Russian
Default : Да
Forced : Нет

Аудио #2
Идентификатор : 3
Формат : AC-3
Формат/Информация : Audio Coding 3
Расширение режима : CM (complete main)
Идентификатор кодека : A_AC3
Продолжительность : 1 ч. 20 м.
Вид битрейта : Постоянный
Битрейт : 448 Кбит/сек
Каналы : 6 каналов
Расположение каналов : Front: L C R, Side: L R, LFE
Частота : 48,0 КГц
Битовая глубина : 16 бит
Метод сжатия : С потерями
Размер потока : 259 Мбайт (6%)
Заголовок : DUB
Язык : Ukrainian
Default : Нет
Forced : Нет

Текст #1
Идентификатор : 4
Формат : UTF-8
Идентификатор кодека : S_TEXT/UTF8
Идентификатор кодека/Информация : UTF-8 Plain Text
Заголовок : Full
Язык : Russian
Default : Нет
Forced : Нет

Текст #2
Идентификатор : 5
Формат : UTF-8
Идентификатор кодека : S_TEXT/UTF8
Идентификатор кодека/Информация : UTF-8 Plain Text
Заголовок : Full
Язык : Ukrainian
Default : Нет
Forced : Нет

Меню
00:00:00.000 : :01
00:02:54.757 : :02
00:04:37.962 : :03
00:09:04.125 : :04
00:12:39.423 : :05
00:15:26.049 : :06
00:17:53.363 : :07
00:21:54.437 : :08
00:25:27.274 : :09
00:28:48.684 : :10
00:32:28.320 : :11
00:35:45.100 : :12
00:38:12.372 : :13
00:43:19.428 : :14
00:45:00.363 : :15
00:49:09.696 : :16
00:53:20.196 : :17
00:56:53.576 : :18
01:02:01.757 : :19
01:07:39.054 : :20
01:10:41.194 : :21
01:12:45.360 : :22
01:16:24.119 : :23
01:18:54.353 : :24













СЭМПЛ

Релиз от:

Если у вас возникают вопросы типа:
-почему у меня есть звук и отсутствует изображение?
-почему у меня рассыпается картинка?
-почему у меня картинка фонит синевой или зеленью?
-зачем и кому всё это нужно?
и тому подобные, читаем FAQ.
ссылка на FAQ запрещена правилами.

По этому, гуглим на тему спойлера (Что такое 10-ти битное видео (High 10 Profile - Hi10P), и как его смотреть?).



   Похожие торренты   Торрент   Размер 
В этой теме нет новых непрочитанных сообщений. Ледниковый период 4: Континентальный дрейф / Ice Age: Continental Drift (2012) BDRip-AVC [Hi10P] от FREEISLAND

76 | 6

725.45 МБ

В этой теме нет новых непрочитанных сообщений. Ледниковый период 4: Континентальный дрейф / Ice Age: Continental Drift (2012) HDRip-AVC [Hi10P]

77 | 16

1.09 ГБ

В этой теме нет новых непрочитанных сообщений. Ледниковый период 4: Континентальный дрейф / Ice Age: Continental Drift (2012) BDRip 1080p

510 | 30

4.37 ГБ

В этой теме нет новых непрочитанных сообщений. Ледниковый период 4: Континентальный дрейф / Ice Age: Continental Drift (2012) BDRip 1080p | 3D-Video | D

386 | 23

7.37 ГБ

В этой теме нет новых непрочитанных сообщений. Ледниковый период 4: Континентальный дрейф / Ice Age: Continental Drift (2012) BDRip 1080p | Лицензия

28 | 10

8.54 ГБ

В этой теме нет новых непрочитанных сообщений. Ледниковый период 4: Континентальный дрейф / Ice Age: Continental Drift (2012) Blu-ray 1080p от Youtracker | лицензия

4 | 7

40.29 ГБ

В этой теме нет новых непрочитанных сообщений. Ледниковый период 4: Континентальный дрейф / Ice Age: Continental Drift (2012) BDRip от HELLYWOOD

528 | 21

1.45 ГБ




Вы не можете начинать темы
Вы не можете отвечать на сообщения
Вы не можете редактировать свои сообщения
Вы не можете удалять свои сообщения
Вы не можете добавлять вложения

Перейти:  
Для Мосгорсуда, Роскомнадзора и рекламодателей: mosgorsud-torrent[собачка]yandex.ru
 Вход
ppkBB3cker v.2 © 2008-2014 @ PPK
[ Time : 0.034s | 14 Queries | GZIP : Off ]

Торрент трекер RUTOR.IN, Не можете зайти на rutor.org? Какой новый адрес рутор? Какое зеркало рутор? Не работает rutor.org и зеркала? Тогда наш торрент специально для вас. Rutor.in неофициальное зеркало rutor. В случае если у Вас заблокирован rutor или вдруг Вы не можете на него зайти, то Вы без труда сможете скачать бесплатно и без рекламы последние новинки кино, игр, сериалов и прочего у нас, на Rutor.in. Не нужно использовать прокси, чтобы зайти на рутор, достаточно воспользоваться нашим ресурсом. Все новые фильмы, игры, сериалы, книги и музыка за 2013 и 2014 годы через торрент бесплатно. Скачивайте фильмы в хорошем качестве, игры для пк, xbox, playstation без регистрации. У нас вы найдете новые Зарубежные сериалы и Русские сериалы 2013, 2014, 2015 годов. Оставайтесь с нами, качайте любимые фильмы, игры, сериалы, книги и музыку.