img image001 image001 image001 image001 image001 image001 image001 image001 image001 image001 image001 image001 image001 image001 image001

Planets Sun Sun Sun
Статистика раздачи
Автор: Снежана | Размер: 4.36 ГБ | Добавлен: 27 июл 2013
Раздают: 5    Качают: 8
Скачать торрент
Скачать торрент
Описание торрента

СообщениеДобавлено: 27 июл 2013 

Феи: Тайна зимнего леса

Secret of the Wings

«Два мира. Одна тайна»


#77

Год выпуска: 2012
Страна: США
Слоган: «Два мира. Одна тайна»
Жанр: мультфильм, фэнтези, семейный
Продолжительность: 01:15:03
Перевод: Любительский (многоголосый, закадровый) [VANO]

Режиссер: Роберт Ганнавей / Robert Gannaway, Пегги Холмс / Peggy Holmes


Роли озвучивали (оригинал)Тимоти Далтон (Lord Milori, озвучка), Люси Хейл (Periwinkle, озвучка), Меган Хилти (Rosetta, озвучка), Анжелика Хьюстон (Queen Clarion, озвучка), Мэтт Лантер (Sled, озвучка), Джесси МакКартни (Terence, озвучка), Мэй Уитман (Tinker Bell, озвучка), Люси Лью (Silvermist, озвучка), Рэйвен (Iridessa, озвучка), Дебби Райан (Spike, озвучка), Памела Адлон (Vidia, озвучка), Анджела Бартис (Fawn, озвучка)

Описание: Динь-Динь и ее подруги всегда боялись пересекать границу с Зимним лесом, ведь существует поверье, что там очень опасно. В один прекрасный день Динь-Динь, сгорая от любопытства, подходит вплотную к лесу, и ее крылья неожиданно начинают блестеть и переливаться. Завороженная Динь, желая узнать тайну волшебных крыльев, кутается в теплое пальто и отправляется в глубь таинственного леса, где ее ждет неожиданное открытие...



MPAA: - Нет возрастных ограничений

Качество: BDRip 1080р (исходник:Tinker.Bell.Secret.of.the.Wings.2012.2D.BluRay.1080p.AVC.DTS-HD.MA5.1-CHDBits)
Контейнер: MKV
Видео: AVC, 1920x1080 (16:9), 7542 kbps, 23,976 fps, 0,152 bpp
Аудио №1: русский /; AC3 /; 5.1 /; 48 kHz /; 384 kbps /; 16 bit; |VANO|
Аудио №2: английский /; AC3 /; 5.1 /; 48 kHz /; 384 kbps /; 16 bit
Субтитры: английские
Навигация по главам: есть

General
Unique ID : 180889877456645256160379313518938925553 (0x88161F879CBDEF4EBE065575265BA9F1)
Complete name : E:TorrentSecret of the Wings (2012) BDRip 1080p-F.HD.mkv
Format : Matroska
Format version : Version 2
File size : 4.36 GiB
Duration : 1h 15mn
Overall bit rate : 8 314 Kbps
Encoded date : UTC 2012-11-02 19:36:01
Writing application : mkvmerge v5.8.0 ('No Sleep / Pillow') built on Sep 2 2012 15:37:04
Writing library : libebml v1.2.3 + libmatroska v1.3.0

Video
ID : 1
Format : AVC
Format/Info : Advanced Video Codec
Format profile : High@L4.1
Format settings, CABAC : Yes
Format settings, ReFrames : 4 frames
Codec ID : V_MPEG4/ISO/AVC
Duration : 1h 15mn
Bit rate : 7 542 Kbps
Width : 1 920 pixels
Height : 1 080 pixels
Display aspect ratio : 16:9
Frame rate : 23.976 fps
Color space : YUV
Chroma subsampling : 4:2:0
Bit depth : 8 bits
Scan type : Progressive
Bits/(Pixel*Frame) : 0.152
Stream size : 3.87 GiB (89%)
Writing library : x264 core 128 r2216 198a7ea
Encoding settings : cabac=1 / ref=4 / deblock=1:0:0 / analyse=0x3:0x113 / me=umh / subme=10 / psy=1 / psy_rd=0.85:0.00 / mixed_ref=1 / me_range=32 / chroma_me=1 / trellis=2 / 8x8dct=1 / cqm=0 / deadzone=21,11 / fast_pskip=0 / chroma_qp_offset=2 / threads=6 / lookahead_threads=1 / sliced_threads=0 / nr=0 / decimate=1 / interlaced=0 / bluray_compat=0 / constrained_intra=0 / bframes=8 / b_pyramid=2 / b_adapt=2 / b_bias=0 / direct=3 / weightb=1 / open_gop=0 / weightp=2 / keyint=240 / keyint_min=23 / scenecut=40 / intra_refresh=0 / rc=2pass / mbtree=0 / bitrate=7542 / ratetol=1.0 / qcomp=0.60 / qpmin=10 / qpmax=51 / qpstep=4 / cplxblur=20.0 / qblur=0.5 / ip_ratio=1.40 / pb_ratio=1.30 / aq=1:0.60
Language : English
Default : Yes
Forced : No
Color primaries : BT.709-5, BT.1361, IEC 61966-2-4, SMPTE RP177
Transfer characteristics : BT.709-5, BT.1361
Matrix coefficients : BT.709-5, BT.1361, IEC 61966-2-4 709, SMPTE RP177

Audio #1
ID : 2
Format : AC-3
Format/Info : Audio Coding 3
Mode extension : CM (complete main)
Codec ID : A_AC3
Duration : 1h 15mn
Bit rate mode : Constant
Bit rate : 384 Kbps
Channel(s) : 6 channels
Channel positions : Front: L C R, Side: L R, LFE
Sampling rate : 48.0 KHz
Bit depth : 16 bits
Compression mode : Lossy
Stream size : 206 MiB (5%)
Title : [VANO]
Language : Russian
Default : Yes
Forced : No

Audio #2
ID : 3
Format : AC-3
Format/Info : Audio Coding 3
Mode extension : CM (complete main)
Codec ID : A_AC3
Duration : 1h 15mn
Bit rate mode : Constant
Bit rate : 384 Kbps
Channel(s) : 6 channels
Channel positions : Front: L C R, Side: L R, LFE
Sampling rate : 48.0 KHz
Bit depth : 16 bits
Compression mode : Lossy
Stream size : 206 MiB (5%)
Language : English
Default : No
Forced : No

Text
ID : 4
Format : UTF-8
Codec ID : S_TEXT/UTF8
Codec ID/Info : UTF-8 Plain Text
Language : English
Default : No
Forced : No

Menu
00:00:00.000 : en:Chapter 01
00:05:53.019 : en:Chapter 02
00:09:04.627 : en:Chapter 03
00:14:10.516 : en:Chapter 04
00:20:32.481 : en:Chapter 05
00:28:17.404 : en:Chapter 06
00:34:46.209 : en:Chapter 07
00:40:26.465 : en:Chapter 08
00:48:07.134 : en:Chapter 09
00:53:50.685 : en:Chapter 10
01:00:37.175 : en:Chapter 11
01:07:47.563 : en:Chapter 12
01:15:03.665 : en:Chapter 13







Релиз от:



   Похожие торренты   Торрент   Размер 
В этой теме нет новых непрочитанных сообщений. Феи: Тайна зимнего леса / Secret of the Wings (2012) BDRip 1080p

91 | 7

4.37 ГБ

В этой теме нет новых непрочитанных сообщений. Феи: Тайна зимнего леса / Secret of the Wings (2012) BDRip 1080p | 3D-Video | L

5 | 4

6.68 ГБ

В этой теме нет новых непрочитанных сообщений. Феи: Тайна зимнего леса / Secret of the Wings (2012) BDRip от HQCLUB | Лицензия

1477 | 47

1.45 ГБ

В этой теме нет новых непрочитанных сообщений. Феи: Тайна зимнего леса / Secret of the Wings (2012) BDRip 1080p от Youtracker | 3D-Video

40 | 2

6.81 ГБ

В этой теме нет новых непрочитанных сообщений. Феи: Тайна зимнего леса / Secret of the Wings (2012) BDRip 1080p от Youtracker | Лицензия

82 | 13

6.97 ГБ

В этой теме нет новых непрочитанных сообщений. Феи: Тайна зимнего леса / Secret of the Wings (2012) BDRip 720p от Leonardo and Scarabey | Лицензия

378 | 69

2.43 ГБ

В этой теме нет новых непрочитанных сообщений. Феи: Тайна зимнего леса / Secret of the Wings (2012) HDRip | L

41 | 6

1.37 ГБ




Вы не можете начинать темы
Вы не можете отвечать на сообщения
Вы не можете редактировать свои сообщения
Вы не можете удалять свои сообщения
Вы не можете добавлять вложения

Перейти:  
Для Мосгорсуда, Роскомнадзора и рекламодателей: mosgorsud-torrent[собачка]yandex.ru
 Вход
ppkBB3cker v.2 © 2008-2014 @ PPK
[ Time : 0.028s | 15 Queries | GZIP : Off ]

Торрент трекер RUTOR.IN, Не можете зайти на rutor.org? Какой новый адрес рутор? Какое зеркало рутор? Не работает rutor.org и зеркала? Тогда наш торрент специально для вас. Rutor.in неофициальное зеркало rutor. В случае если у Вас заблокирован rutor или вдруг Вы не можете на него зайти, то Вы без труда сможете скачать бесплатно и без рекламы последние новинки кино, игр, сериалов и прочего у нас, на Rutor.in. Не нужно использовать прокси, чтобы зайти на рутор, достаточно воспользоваться нашим ресурсом. Все новые фильмы, игры, сериалы, книги и музыка за 2013 и 2014 годы через торрент бесплатно. Скачивайте фильмы в хорошем качестве, игры для пк, xbox, playstation без регистрации. У нас вы найдете новые Зарубежные сериалы и Русские сериалы 2013, 2014, 2015 годов. Оставайтесь с нами, качайте любимые фильмы, игры, сериалы, книги и музыку.