img image001 image001 image001 image001 image001 image001 image001 image001 image001 image001 image001 image001 image001 image001 image001

Planets Sun Sun Sun
Статистика раздачи
Автор: Снежана | Размер: 17.29 ГБ | Добавлен: 27 июл 2013
Раздают: 91    Качают: 12
Скачать торрент
Скачать торрент
Описание торрента

СообщениеДобавлено: 27 июл 2013 

#77

О фильме:
Название: Звёздные Войны:Войны Клонов. Сезон 4
Оригинальное название: Star Wars: The Clone Wars
Год выхода: 2011-2012
Жанр: Фантастика, Анимация, Мультсериал.
Режиссер: Дуэйн Данэм, Дэнни Келлер
В ролях: Мэтт Лантер, Эшли Дрейн, Джеймс Арнольд Тейлор, Ди Брэдли Бэйкер, Том Кэйн, Ника Футтерман, Йен Эберкромби, Кори Бертон, Катрин Табер, Мэттью Вуд
На передовых позициях межгалактической войны Добра и Зла — снова любимые герои: Энакин Скайуокер, Оби-Ван Кеноби и Падме Амидала, а также присоединившийся к ним падаван Энакина, Асока. Противостоящие им злодеи — Палпатин, граф Дуку и генерал Гривус — вынашивают план захвата Галактики. Великая Армия Республики, ведомая Йодой, Мейсом Винду, Оби-Ваном Кеноби и другими рыцарями-джедаями, сражается против Новой Армии Дроидов сепаратистов.

Страна: США
Студия: Lucasfilm
Продолжительность: ~00.22.00
Перевод:
Профессиональный (дубляж): Студия «Невафильм»
Профессиональный (многоголосый, закадровый): Студия «Lostfilm»

Технические данные:
Формат: MKV
Кодек: MPEG-4.AVC
Качество: WEB-DL 720p
Видео: 1 280x720 ~4000 Кбит/с 23.976 Кадр/с
Звук:
Дубляж AC-3 192 Kbps 2 channels, 48.0 KHz
Закадровый AC-3 384 Kbps 6 channels, 48.0 KHz
Оригинал AC-3 384 Kbps 6 channels, 48.0 KHz
Субтитры: Отсутствуют

Видео:
Формат : AVC
Формат/Информация : Advanced Video Codec
Идентификатор кодека : V_MPEG4/ISO/AVC
Продолжительность : 21 м.
Битрейт : 3999 Кбит/сек
Ширина : 1280 пикселей
Высота : 720 пикселей
Соотношение сторон : 16:9
Режим частоты кадров : Постоянный
Частота кадров : 23,976 кадра/сек
Битовая глубина : 8 бит
Тип развёртки : Прогрессивная
Бит/(Пиксели*Кадры) : 0.181
Размер потока : 613 Мбайт (79%)
Язык : English

Аудио #1
Идентификатор : 2
Формат : AC-3
Формат/Информация : Audio Coding 3
Расширение режима : CM (complete main)
Параметр Endianness формата : Big
Идентификатор кодека : A_AC3
Продолжительность : 21 м.
Вид битрейта : Постоянный
Битрейт : 192 Кбит/сек
Каналы : 2 канала
Расположение каналов : Front: L R
Частота : 48,0 КГц
Битовая глубина : 16 бит
Метод сжатия : С потерями
Размер потока : 29,4 Мбайт (4%)
Заголовок : Dolby Digital 2.0
Язык : Russian
Default : Да
Forced : Да

Аудио #2
Идентификатор : 3
Формат : AC-3
Формат/Информация : Audio Coding 3
Расширение режима : CM (complete main)
Параметр Endianness формата : Big
Идентификатор кодека : A_AC3
Продолжительность : 21 м.
Вид битрейта : Постоянный
Битрейт : 384 Кбит/сек
Каналы : 6 каналов
Расположение каналов : Front: L C R, Side: L R, LFE
Частота : 48,0 КГц
Битовая глубина : 16 бит
Метод сжатия : С потерями
Размер потока : 58,8 Мбайт (8%)
Заголовок : Dolby Digital 5.1
Язык : Russian
Default : Нет
Forced : Нет

Аудио #3
Идентификатор : 4
Формат : AC-3
Формат/Информация : Audio Coding 3
Расширение режима : CM (complete main)
Параметр Endianness формата : Big
Идентификатор кодека : A_AC3
Продолжительность : 21 м.
Вид битрейта : Постоянный
Битрейт : 384 Кбит/сек
Каналы : 6 каналов
Расположение каналов : Front: L C R, Side: L R, LFE
Частота : 48,0 КГц
Битовая глубина : 16 бит
Метод сжатия : С потерями
Размер потока : 58,8 Мбайт (8%)
Заголовок : Dolby Digital 5.1
Язык : English
Default : Нет
Forced : Нет








Официальный портал
Релиз взят у: PGor



   Похожие торренты   Торрент   Размер 
В этой теме нет новых непрочитанных сообщений. Звездные Войны: Войны Клонов / Star Wars: The Clone Wars [S01-04] (2008-2012) HDTVRip-WEB-DLRip | D Невафильм

291 | 97

22.93 ГБ

В этой теме нет новых непрочитанных сообщений. Звездные Войны: Войны Клонов / Star Wars: The Clone Wars [S05] (2012-2013) WEB-DL 720p | LostFilm

87 | 7

15.24 ГБ

В этой теме нет новых непрочитанных сообщений. Звездные Войны: Войны Клонов / Star Wars: The Clone Wars [S05] (2012-2013) WEB-DL 400p | LostFilm

219 | 20

5.8 ГБ

В этой теме нет новых непрочитанных сообщений. Звездные Войны: Войны Клонов / Star Wars: The Clone Wars [05x01-10] (2012) WEB-DLRip | LostFilm

1 | 2

2.16 ГБ

В этой теме нет новых непрочитанных сообщений. Звездные Войны: Войны Клонов / Star Wars: The Clone Wars [S04] (2011) WEB-DLRip | P LostFilm

46 | 8

5.94 ГБ

В этой теме нет новых непрочитанных сообщений. Звездные войны: Войны клонов / Star Wars: The Clone Wars [s06] (2014) WEB-DLRip 720p от MediaClub | Lostfilm

396 | 49

5.85 ГБ

В этой теме нет новых непрочитанных сообщений. Звездные войны: Войны клонов / Star Wars: The Clone Wars [06x01-02 из 13] (2014) WEB-DLRip 720p от MediaClub | Lostfilm

25 | 3

886.5 МБ




Вы не можете начинать темы
Вы не можете отвечать на сообщения
Вы не можете редактировать свои сообщения
Вы не можете удалять свои сообщения
Вы не можете добавлять вложения

Перейти:  
Для Мосгорсуда, Роскомнадзора и рекламодателей: mosgorsud-torrent[собачка]yandex.ru
 Вход
ppkBB3cker v.2 © 2008-2014 @ PPK
[ Time : 0.028s | 14 Queries | GZIP : Off ]

Торрент трекер RUTOR.IN, Не можете зайти на rutor.org? Какой новый адрес рутор? Какое зеркало рутор? Не работает rutor.org и зеркала? Тогда наш торрент специально для вас. Rutor.in неофициальное зеркало rutor. В случае если у Вас заблокирован rutor или вдруг Вы не можете на него зайти, то Вы без труда сможете скачать бесплатно и без рекламы последние новинки кино, игр, сериалов и прочего у нас, на Rutor.in. Не нужно использовать прокси, чтобы зайти на рутор, достаточно воспользоваться нашим ресурсом. Все новые фильмы, игры, сериалы, книги и музыка за 2013 и 2014 годы через торрент бесплатно. Скачивайте фильмы в хорошем качестве, игры для пк, xbox, playstation без регистрации. У нас вы найдете новые Зарубежные сериалы и Русские сериалы 2013, 2014, 2015 годов. Оставайтесь с нами, качайте любимые фильмы, игры, сериалы, книги и музыку.