img image001 image001 image001 image001 image001 image001 image001 image001 image001 image001 image001 image001 image001 image001 image001

Planets Sun Sun Sun
Статистика раздачи
Автор: Снежана | Размер: 1.05 ГБ | Добавлен: 27 июл 2013
Раздают: 31    Качают: 15
Скачать торрент
Скачать торрент
Описание торрента

СообщениеДобавлено: 27 июл 2013 

#77


Информация о фильме
Название: Школа монстров
Оригинальное название: Monster High: Ghoul's Rule!
Год выхода: 2012
Жанр: мультфильм, семейный
Режиссер: Майк Феттерли
В ролях: Хэнк Бэнкс, Кэм Кларк, Эндрю Дункан, Эрин Фицджералд, Ди Ди Грин, Кейт Хиггинс, Джули Маддалена, Оду Паден, Синди Робинсон, Салли Саффиоти, Стив Стейли, Америка Юнг

О фильме:
Френки и её друзья, решают устроить крутую вечеринку на Хеллуин, хотя это сторого запрещено! Но на то они монстры, чтоб нарушать любые правила и доказать всем, что это нормально быть самим собой. Быть уникальным. Быть монстром!



Официальный сайт

Страна: США
Продолжительность: 01:11:19
Перевод: Любительский (двухголосый закадровый)

Файл
Кодек: XviD (AVI)
Качество: HDRip
Видео: 720x400 (1.80:1), 23.976 fps, XviD build 50 ~1846 kbps avg, 0.27 bit/pixel
Звук: 44.1 kHz, AC3 Dolby Digital, 2/0 (L,R) ch, ~256 kbps
Субтитры: отсутствуют





General
Complete name : Monster.high.ghouls.rule.2012.avi
Format : AVI
Format/Info : Audio Video Interleave
Format profile : OpenDML
File size : 1.05 GiB
Duration : 1h 11mn
Overall bit rate : 2 109 Kbps
Writing application : Lavf52.93.0

Video
ID : 0
Format : MPEG-4 Visual
Format profile : Advanced Simple@L5
Format settings, BVOP : 2
Format settings, QPel : No
Format settings, GMC : No warppoints
Format settings, Matrix : Default (MPEG)
Codec ID : XVID
Codec ID/Hint : XviD
Duration : 1h 11mn
Bit rate : 1 840 Kbps
Width : 720 pixels
Height : 400 pixels
Display aspect ratio : 16:9
Frame rate : 23.976 fps
Color space : YUV
Chroma subsampling : 4:2:0
Bit depth : 8 bits
Scan type : Progressive
Compression mode : Lossy
Bits/(Pixel*Frame) : 0.266
Stream size : 939 MiB (87%)
Writing library : XviD 1.2.1 (UTC 2008-12-04)

Audio
ID : 1
Format : AC-3
Format/Info : Audio Coding 3
Mode extension : CM (complete main)
Codec ID : 2000
Duration : 1h 11mn
Bit rate mode : Constant
Bit rate : 256 Kbps
Channel(s) : 2 channels
Channel positions : Front: L R
Sampling rate : 44.1 KHz
Bit depth : 16 bits
Compression mode : Lossy
Stream size : 131 MiB (12%)
Alignment : Aligned on interleaves
Interleave, duration : 35 ms (0.84 video frame)






   Похожие торренты   Торрент   Размер 
В этой теме нет новых непрочитанных сообщений. Школа монстров: Классные девчонки / Monster High: Ghoul's Rule! (2012) HDRip | Лицензия

160 | 21

1.37 ГБ

В этой теме нет новых непрочитанных сообщений. Школа монстров: Классные девчонки / Monster High: Ghoul's Rule! (2012) HDRip от Torrent-Xzona | КПК | D

27 | 11

339.54 МБ

В этой теме нет новых непрочитанных сообщений. Школа монстров: Классные девчонки / Monster High: Ghoul's Rule! (2012) BDRip 1080p

19 | 7

6 ГБ

В этой теме нет новых непрочитанных сообщений. Школа монстров: Классные девчонки / Monster High: Ghoul's Rule! (2012) WEB-DL 720p от HDClub

87 | 4

2.37 ГБ

В этой теме нет новых непрочитанных сообщений. Школа монстров: Дилогия / Monster High: Dilogy (2011) HDRip | Лицензия

194 | 31

1.46 ГБ

В этой теме нет новых непрочитанных сообщений. Школа Монстров: Призрачно / Monster High: Haunted (2015) HDRip-AVC от ExKinoRay | Лицензия

2104 | 122

1.64 ГБ

В этой теме нет новых непрочитанных сообщений. Школа монстров: Мотор! / Monster High: Fright On! (2012) BDRip-AVC | iPad | D

104 | 17

699.75 МБ




Вы не можете начинать темы
Вы не можете отвечать на сообщения
Вы не можете редактировать свои сообщения
Вы не можете удалять свои сообщения
Вы не можете добавлять вложения

Перейти:  
Для Мосгорсуда, Роскомнадзора и рекламодателей: mosgorsud-torrent[собачка]yandex.ru
 Вход
ppkBB3cker v.2 © 2008-2014 @ PPK
[ Time : 0.226s | 15 Queries | GZIP : Off ]

Торрент трекер RUTOR.IN, Не можете зайти на rutor.org? Какой новый адрес рутор? Какое зеркало рутор? Не работает rutor.org и зеркала? Тогда наш торрент специально для вас. Rutor.in неофициальное зеркало rutor. В случае если у Вас заблокирован rutor или вдруг Вы не можете на него зайти, то Вы без труда сможете скачать бесплатно и без рекламы последние новинки кино, игр, сериалов и прочего у нас, на Rutor.in. Не нужно использовать прокси, чтобы зайти на рутор, достаточно воспользоваться нашим ресурсом. Все новые фильмы, игры, сериалы, книги и музыка за 2013 и 2014 годы через торрент бесплатно. Скачивайте фильмы в хорошем качестве, игры для пк, xbox, playstation без регистрации. У нас вы найдете новые Зарубежные сериалы и Русские сериалы 2013, 2014, 2015 годов. Оставайтесь с нами, качайте любимые фильмы, игры, сериалы, книги и музыку.