img image001 image001 image001 image001 image001 image001 image001 image001 image001 image001 image001 image001 image001 image001 image001

Planets Sun Sun Sun
Статистика раздачи
Автор: Снежана | Размер: 370.3 МБ | Добавлен: 27 июл 2013
Раздают: 1    Качают: 2
Скачать торрент
Скачать торрент
Описание торрента

СообщениеДобавлено: 27 июл 2013 

#77
Год выпуска: 1972
Страна: США
Жанр: анимация
Продолжительность: 00:22:26

Перевод: Профессиональный (многоголосый закадровый)
Субтитры: нет
Оригинальная аудиодорожка: нет

Режиссер: Джулз Басс / Jules Bass, Артур Ранкин мл. / Arthur Rankin Jr.

Описание: Робин Гуд - защитник всех угнетенных. Его заклятый враг шериф, не раз расставлял ловушки, в которые пытался поймать главного человека в Шервурдском лесу. Но в этот раз коварному шерифу повезло - он взял под стражу лесника Джорджа-зеленое яблоко, которого готов обменять только на Робин Гуда. Сынишка Джорджа Уил отправляется в лес в надежде на помощь...





Исходник: DVD5 R5
Тип релиза: DVDRip
Контейнер: AVI

Видео: 704x528 (4:3), 25 fps, XviD ~ 2073 kbps avg, 0.223 bit/pixel
Аудио: 48 kHz, AC3, 2 ch, 224.00 kbps

Раздача от:
Общее
Полное имя : Robin.Hood.1972.P.DVDRip_[Youtracker]_by_AVP Studio.avi
Формат : AVI
Формат/Информация : Audio Video Interleave
Размер файла : 370 Мбайт
Продолжительность : 22 м.
Общий поток : 2307 Кбит/сек
Программа кодирования : VirtualDubMod 1.5.10.3 | www.virtualdub-fr.org || (build 2550/release)
Библиотека кодирования : VirtualDubMod build 2550/release

Видео
Идентификатор : 0
Формат : MPEG-4 Visual
Профиль формата : Advanced Simple@L5
Параметр BVOP формата : 1
Параметр QPel формата : Нет
Параметр GMC формата : Без точки перехода
Параметр матрицы формата : Выборочная
Идентификатор кодека : XVID
Идентификатор кодека/Подсказка : XviD
Продолжительность : 22 м.
Битрейт : 2073 Кбит/сек
Ширина : 704 пикселя
Высота : 528 пикселей
Соотношение сторон : 4:3
Частота кадров : 25,000 кадров/сек
Цветовое пространство : YUV
Субдискретизация насыщенности : 4:2:0
Битовая глубина : 8 бит
Тип развёртки : Прогрессивная
Метод сжатия : С потерями
Бит/(Пиксели*Кадры) : 0.223
Размер потока : 333 Мбайт (90%)
Библиотека кодирования : XviD 65

Аудио
Идентификатор : 1
Формат : AC-3
Формат/Информация : Audio Coding 3
Расширение режима : CM (complete main)
Идентификатор кодека : 2000
Продолжительность : 22 м.
Вид битрейта : Постоянный
Битрейт : 224 Кбит/сек
Каналы : 2 канала
Расположение каналов : Front: L R
Частота : 48,0 КГц
Битовая глубина : 16 бит
Метод сжатия : С потерями
Размер потока : 36,0 Мбайт (10%)
Выравнивание : Разделение по промежуткам
Продолжительность промежутка : 40 мс. (1,00 видеокадр)
Время предзагрузки промежутка : 500 мс





   Похожие торренты   Торрент   Размер 
В этой теме нет новых непрочитанных сообщений. Робин Гуд / Robin Hood (1972) DVDRip-AVC от Youtracker | P

0 | 2

371.53 МБ

В этой теме нет новых непрочитанных сообщений. Робин Гуд / Robin Hood + Робинзон Крузо / Robinson Crusoe (1972-1973) DVD5 от Youtracker

14 | 2

2.3 ГБ

В этой теме нет новых непрочитанных сообщений. Робин Гуд - принц воров + Робин Гуд / Robin Hood: Prince of Thieves + Robin Hood (1991-2010) BDRip720p

1 | 4

13.24 ГБ

В этой теме нет новых непрочитанных сообщений. Том и Джерри: Робин Гуд и мышь-весельчак / Tom And Jerry: Robin Hood And His Merry Mouse (2012) DVD5 от Youtracker | D | Лицензия

3 | 4

3.37 ГБ

В этой теме нет новых непрочитанных сообщений. Робин Гуд / Robin Hood (1973) DVDRip от anton210896 | D, P, A

64 | 12

1.73 ГБ

В этой теме нет новых непрочитанных сообщений. Робин Гуд / Robin Hood (2010) DVDRip | КПК от Generalfilm

31 | 2

565.91 МБ

В этой теме нет новых непрочитанных сообщений. Робин Гуд / Robin Hood [S01-03] (39 серий) (2006-2009) DVDRip

55 | 12

14.78 ГБ




Вы не можете начинать темы
Вы не можете отвечать на сообщения
Вы не можете редактировать свои сообщения
Вы не можете удалять свои сообщения
Вы не можете добавлять вложения

Перейти:  
Для Мосгорсуда, Роскомнадзора и рекламодателей: mosgorsud-torrent[собачка]yandex.ru
 Вход
ppkBB3cker v.2 © 2008-2014 @ PPK
[ Time : 0.540s | 14 Queries | GZIP : Off ]

Торрент трекер RUTOR.IN, Не можете зайти на rutor.org? Какой новый адрес рутор? Какое зеркало рутор? Не работает rutor.org и зеркала? Тогда наш торрент специально для вас. Rutor.in неофициальное зеркало rutor. В случае если у Вас заблокирован rutor или вдруг Вы не можете на него зайти, то Вы без труда сможете скачать бесплатно и без рекламы последние новинки кино, игр, сериалов и прочего у нас, на Rutor.in. Не нужно использовать прокси, чтобы зайти на рутор, достаточно воспользоваться нашим ресурсом. Все новые фильмы, игры, сериалы, книги и музыка за 2013 и 2014 годы через торрент бесплатно. Скачивайте фильмы в хорошем качестве, игры для пк, xbox, playstation без регистрации. У нас вы найдете новые Зарубежные сериалы и Русские сериалы 2013, 2014, 2015 годов. Оставайтесь с нами, качайте любимые фильмы, игры, сериалы, книги и музыку.