img image001 image001 image001 image001 image001 image001 image001 image001 image001 image001 image001 image001 image001 image001 image001

Planets Sun Sun Sun
Статистика раздачи
Автор: Снежана | Размер: 371.53 МБ | Добавлен: 27 июл 2013
Раздают: 0    Качают: 2
Скачать торрент
Скачать торрент
Описание торрента

СообщениеДобавлено: 27 июл 2013 

#77
Год выпуска: 1972
Страна: США
Жанр: анимация
Продолжительность: 00:22:26

Перевод: Профессиональный (многоголосый закадровый)
Субтитры: нет
Оригинальная аудиодорожка: нет

Режиссер: Джулз Басс / Jules Bass, Артур Ранкин мл. / Arthur Rankin Jr.

Описание: Робин Гуд - защитник всех угнетенных. Его заклятый враг шериф, не раз расставлял ловушки, в которые пытался поймать главного человека в Шервурдском лесу. Но в этот раз коварному шерифу повезло - он взял под стражу лесника Джорджа-зеленое яблоко, которого готов обменять только на Робин Гуда. Сынишка Джорджа Уил отправляется в лес в надежде на помощь...





Исходник: DVD5 R5
Тип релиза: DVDRip-AVC
Контейнер: MKV

Видео: 704x572@768x572 (4:3), 25 fps, H264 ~ 2088 kbps avg, 0.207 bit/pixel
Аудио: 48 kHz, AC3, 2 ch, 224.00 kbps

Раздача от:
Общее
Полное имя : Robin.Hood.1972.P.DVDRip-AVC_[Youtracker]_by_AVP Studio.mkv
Формат : Matroska
Версия формата : Version 2
Размер файла : 372 Мбайт
Продолжительность : 22 м.
Общий поток : 2315 Кбит/сек
Дата кодирования : UTC 2012-11-09 11:58:00
Программа кодирования : mkvmerge v5.0.1 ('Es ist Sommer') built on Nov 6 2011 16:23:40
Библиотека кодирования : libebml v1.2.2 + libmatroska v1.3.0

Видео
Идентификатор : 1
Формат : AVC
Формат/Информация : Advanced Video Codec
Профиль формата : High@L4.1
Параметр CABAC формата : Да
Параметр ReFrames формата : 11 кадров
Идентификатор кодека : V_MPEG4/ISO/AVC
Продолжительность : 22 м.
Битрейт : 2088 Кбит/сек
Ширина : 704 пикселя
Высота : 572 пикселя
Соотношение сторон : 4:3
Соотношение сторон в оригинале : 4:3
Частота кадров : 25,000 кадров/сек
Цветовое пространство : YUV
Субдискретизация насыщенности : 4:2:0
Битовая глубина : 8 бит
Тип развёртки : Прогрессивная
Бит/(Пиксели*Кадры) : 0.207
Размер потока : 328 Мбайт (88%)
Библиотека кодирования : x264 core 119 r2106 07efeb4
Настройки программы : cabac=1 / ref=11 / deblock=1:-2:-1 / analyse=0x3:0x113 / me=umh / subme=9 / psy=1 / psy_rd=1.00:0.20 / mixed_ref=1 / me_range=32 / chroma_me=1 / trellis=1 / 8x8dct=1 / cqm=0 / deadzone=21,11 / fast_pskip=0 / chroma_qp_offset=-3 / threads=3 / sliced_threads=0 / nr=0 / decimate=0 / interlaced=0 / bluray_compat=0 / constrained_intra=0 / bframes=8 / b_pyramid=2 / b_adapt=2 / b_bias=0 / direct=3 / weightb=1 / open_gop=0 / weightp=2 / keyint=250 / keyint_min=25 / scenecut=40 / intra_refresh=0 / rc_lookahead=60 / rc=2pass / mbtree=1 / bitrate=2088 / ratetol=1.0 / qcomp=0.60 / qpmin=0 / qpmax=69 / qpstep=4 / cplxblur=20.0 / qblur=0.5 / ip_ratio=1.40 / aq=1:1.00
Default : Да
Forced : Нет

Аудио
Идентификатор : 2
Формат : AC-3
Формат/Информация : Audio Coding 3
Расширение режима : CM (complete main)
Идентификатор кодека : A_AC3
Продолжительность : 22 м.
Вид битрейта : Постоянный
Битрейт : 224 Кбит/сек
Каналы : 2 канала
Расположение каналов : Front: L R
Частота : 48,0 КГц
Битовая глубина : 16 бит
Метод сжатия : С потерями
Размер потока : 36,0 Мбайт (10%)
Default : Да
Forced : Нет





   Похожие торренты   Торрент   Размер 
В этой теме нет новых непрочитанных сообщений. Робин Гуд / Robin Hood (1972) DVDRip от Youtracker | P

1 | 2

370.3 МБ

В этой теме нет новых непрочитанных сообщений. Робин Гуд / Robin Hood + Робинзон Крузо / Robinson Crusoe (1972-1973) DVD5 от Youtracker

14 | 2

2.3 ГБ

В этой теме нет новых непрочитанных сообщений. Робин Гуд - принц воров + Робин Гуд / Robin Hood: Prince of Thieves + Robin Hood (1991-2010) BDRip720p

1 | 4

13.24 ГБ

В этой теме нет новых непрочитанных сообщений. Том и Джерри: Робин Гуд и мышь-весельчак / Tom And Jerry: Robin Hood And His Merry Mouse (2012) DVD5 от Youtracker | D | Лицензия

3 | 4

3.37 ГБ

В этой теме нет новых непрочитанных сообщений. Робин Гуд / Robin Hood (1973) DVDRip от anton210896 | D, P, A

64 | 12

1.73 ГБ

В этой теме нет новых непрочитанных сообщений. Робин Гуд / Robin Hood (2010) DVDRip | КПК от Generalfilm

31 | 2

565.91 МБ

В этой теме нет новых непрочитанных сообщений. Робин Гуд / Robin Hood [S01-03] (39 серий) (2006-2009) DVDRip

55 | 12

14.78 ГБ




Вы не можете начинать темы
Вы не можете отвечать на сообщения
Вы не можете редактировать свои сообщения
Вы не можете удалять свои сообщения
Вы не можете добавлять вложения

Перейти:  
Для Мосгорсуда, Роскомнадзора и рекламодателей: mosgorsud-torrent[собачка]yandex.ru
 Вход
ppkBB3cker v.2 © 2008-2014 @ PPK
[ Time : 0.036s | 14 Queries | GZIP : On ]

Торрент трекер RUTOR.IN, Не можете зайти на rutor.org? Какой новый адрес рутор? Какое зеркало рутор? Не работает rutor.org и зеркала? Тогда наш торрент специально для вас. Rutor.in неофициальное зеркало rutor. В случае если у Вас заблокирован rutor или вдруг Вы не можете на него зайти, то Вы без труда сможете скачать бесплатно и без рекламы последние новинки кино, игр, сериалов и прочего у нас, на Rutor.in. Не нужно использовать прокси, чтобы зайти на рутор, достаточно воспользоваться нашим ресурсом. Все новые фильмы, игры, сериалы, книги и музыка за 2013 и 2014 годы через торрент бесплатно. Скачивайте фильмы в хорошем качестве, игры для пк, xbox, playstation без регистрации. У нас вы найдете новые Зарубежные сериалы и Русские сериалы 2013, 2014, 2015 годов. Оставайтесь с нами, качайте любимые фильмы, игры, сериалы, книги и музыку.