img image001 image001 image001 image001 image001 image001 image001 image001 image001 image001 image001 image001 image001 image001 image001

Planets Sun Sun Sun
Статистика раздачи
Автор: Снежана | Размер: 2.19 ГБ | Добавлен: 27 июл 2013
Раздают: 4    Качают: 3
Скачать торрент
Скачать торрент
Описание торрента

СообщениеДобавлено: 27 июл 2013 

#77


Информация о фильме
Название: Нити
Оригинальное название: Strіngs
Год выхода: 2004
Жанр: мультфильм, фэнтези, драма, приключения
Режиссер: Андерс Рённов Кларлунд
В ролях: Джеймс МакЭвой,Катрин МакКормак,Джулиан Гловер,Дерек Джекоби,Иэн Харт,Клер Скиннер,Дэвид Хэрвуд,Саманта Бонд,Марина Бурас,Пернилла Хёймарк



О фильме:
Трагическая гибель владыки великого Авалона вновь разожгла веками тлевшую вражду между авалонцами и зеритами. Юный сын погибшего государя Хэл Тара озабочен не будущим царствованием, а желанием жестоко отомстить зеритам за смерть отца. Переодевшись в простые одежды и взяв с собой только отцовский меч, Хэл покидает родной замок и отправляется навстречу неизвестности…







Страна: Дания, Швеция, Норвегия, Великобритания
Продолжительность: 01:31:40
Перевод: Профессиональный многоголосый, авторский одноголосый



Файл
Качество: BDRip720
Видео: 1280x560 (2.25:1), 24.000 fps, 3 033 Kbps (0.176 bit/pixel)
Звук:
Аудио #1: AC-3, 48.0 KHz, 2 ch, 192 Kbps, CBR
Аудио #2: AC-3, 48.0 KHz, 2 ch, 192 Kbps, CBR
Общее
Уникальный идентификатор : 173903774370962206139232195082360981939 (0x82D4A60DF230085EB0A7524954C409B3)
Полное имя : E:Niti.2004.BDRip720.Torrent-Xzona.mkv
Формат : Matroska
Версия формата : Version 1
Размер файла : 2,19 Гбайт
Продолжительность : 1 ч. 31 м.
Общий поток : 3420 Кбит/сек
Дата кодирования : UTC 2012-11-08 18:26:54
Программа кодирования : mkvmerge v2.5.3 ('Boogie') built on Mar 7 2009 15:00:41
Библиотека кодирования : libebml v0.7.7 + libmatroska v0.8.1

Видео
Идентификатор : 1
Формат : AVC
Формат/Информация : Advanced Video Codec
Профиль формата : High@L4.1
Параметр CABAC формата : Да
Параметр ReFrames формата : 4 кадра
Идентификатор кодека : V_MPEG4/ISO/AVC
Продолжительность : 1 ч. 31 м.
Битрейт : 3033 Кбит/сек
Ширина : 1280 пикселей
Высота : 560 пикселей
Соотношение сторон : 2,25:1
Режим частоты кадров : Постоянный
Частота кадров : 24,000 кадра/сек
Цветовое пространство : YUV
Субдискретизация насыщенности : 4:2:0
Битовая глубина : 8 бит
Тип развёртки : Прогрессивная
Бит/(Пиксели*Кадры) : 0.176
Размер потока : 1,90 Гбайт (87%)
Библиотека кодирования : x264 core 125 r2200 999b753
Настройки программы : cabac=1 / ref=3 / deblock=1:-1:-1 / analyse=0x3:0x113 / me=umh / subme=10 / psy=1 / psy_rd=1.00:0.15 / mixed_ref=1 / me_range=16 / chroma_me=1 / trellis=2 / 8x8dct=1 / cqm=0 / deadzone=21,11 / fast_pskip=0 / chroma_qp_offset=-3 / threads=9 / lookahead_threads=1 / sliced_threads=0 / nr=0 / decimate=1 / interlaced=0 / bluray_compat=0 / constrained_intra=0 / bframes=3 / b_pyramid=2 / b_adapt=1 / b_bias=0 / direct=1 / weightb=1 / open_gop=0 / weightp=2 / keyint=240 / keyint_min=24 / scenecut=40 / intra_refresh=0 / rc_lookahead=40 / rc=2pass / mbtree=1 / bitrate=3033 / ratetol=1.0 / qcomp=0.60 / qpmin=0 / qpmax=69 / qpstep=4 / cplxblur=20.0 / qblur=0.5 / ip_ratio=1.40 / aq=1:1.00
Язык : English
Default : Да
Forced : Нет

Аудио #1
Идентификатор : 2
Формат : AC-3
Формат/Информация : Audio Coding 3
Расширение режима : CM (complete main)
Параметр Endianness формата : Big
Идентификатор кодека : A_AC3
Продолжительность : 1 ч. 31 м.
Вид битрейта : Постоянный
Битрейт : 192 Кбит/сек
Каналы : 2 канала
Расположение каналов : Front: L R
Частота : 48,0 КГц
Битовая глубина : 16 бит
Метод сжатия : С потерями
Размер потока : 126 Мбайт (6%)
Default : Да
Forced : Нет

Аудио #2
Идентификатор : 3
Формат : AC-3
Формат/Информация : Audio Coding 3
Расширение режима : CM (complete main)
Параметр Endianness формата : Big
Идентификатор кодека : A_AC3
Продолжительность : 1 ч. 31 м.
Вид битрейта : Постоянный
Битрейт : 192 Кбит/сек
Каналы : 2 канала
Расположение каналов : Front: L R
Частота : 48,0 КГц
Битовая глубина : 16 бит
Метод сжатия : С потерями
Размер потока : 126 Мбайт (6%)
Default : Нет
Forced : Нет




Релиз от: &











   Похожие торренты   Торрент   Размер 
В этой теме нет новых непрочитанных сообщений. Нити / Strings (2004) BDRip от Torrent-Xzona | P

2 | 4

1.37 ГБ

В этой теме нет новых непрочитанных сообщений. Известная Вселенная / Known Universe [S01] (2009) BDRip720 от Torrent-Xzona | D

13 | 7

3.77 ГБ

В этой теме нет новых непрочитанных сообщений. Ван-Пис: Фильм первый / One Piece: Kaisokuou ni ore wa naru (2000) BDRip720 от Torrent-Xzona

25 | 6

2.19 ГБ

В этой теме нет новых непрочитанных сообщений. Ван Хельсинг / Van Helsing (2004) HDRip от Torrent-Xzona | КПК | D

7 | 10

449.27 МБ

В этой теме нет новых непрочитанных сообщений. Факир / Fakiren fra Bilbao (2004) DVDRip от Torrent-Xzona | КПК

2 | 2

334.08 МБ

В этой теме нет новых непрочитанных сообщений. 38-я параллель / Taegukgi hwinalrimyeo (2004) HDRip от Torrent-Xzona | КПК | P

11 | 2

499.73 МБ

В этой теме нет новых непрочитанных сообщений. …А в душе я танцую / Inside I'm Dancing (2004) WEB-DLRip от Torrent-Xzona | КПК

28 | 2

374.94 МБ




Вы не можете начинать темы
Вы не можете отвечать на сообщения
Вы не можете редактировать свои сообщения
Вы не можете удалять свои сообщения
Вы не можете добавлять вложения

Перейти:  
Для Мосгорсуда, Роскомнадзора и рекламодателей: mosgorsud-torrent[собачка]yandex.ru
 Вход
ppkBB3cker v.2 © 2008-2014 @ PPK
[ Time : 0.806s | 15 Queries | GZIP : Off ]

Торрент трекер RUTOR.IN, Не можете зайти на rutor.org? Какой новый адрес рутор? Какое зеркало рутор? Не работает rutor.org и зеркала? Тогда наш торрент специально для вас. Rutor.in неофициальное зеркало rutor. В случае если у Вас заблокирован rutor или вдруг Вы не можете на него зайти, то Вы без труда сможете скачать бесплатно и без рекламы последние новинки кино, игр, сериалов и прочего у нас, на Rutor.in. Не нужно использовать прокси, чтобы зайти на рутор, достаточно воспользоваться нашим ресурсом. Все новые фильмы, игры, сериалы, книги и музыка за 2013 и 2014 годы через торрент бесплатно. Скачивайте фильмы в хорошем качестве, игры для пк, xbox, playstation без регистрации. У нас вы найдете новые Зарубежные сериалы и Русские сериалы 2013, 2014, 2015 годов. Оставайтесь с нами, качайте любимые фильмы, игры, сериалы, книги и музыку.
cron