img image001 image001 image001 image001 image001 image001 image001 image001 image001 image001 image001 image001 image001 image001 image001

Planets Sun Sun Sun
Статистика раздачи
Автор: Снежана | Размер: 2.19 ГБ | Добавлен: 27 июл 2013
Раздают: 25    Качают: 6
Скачать торрент
Скачать торрент
Описание торрента

СообщениеДобавлено: 27 июл 2013 

#77

Информация о фильме
Название: Ван-Пис: Фильм первый
Оригинальное название: One Piece: The Great Gold Pirate
Год выпуска: 2000
Жанр: Приключения, комедия, фэнтези, сёнэн
Режиссер: Дзюндзи Симидзу
В ролях: Акэми Окамура
Каппэй Ямагути
Казуя Накаи
Маюми Танака
Кенджи Утсуми
Нати Нодзава
Такеши Аоно
Юка Имаи
Osamu Ryutani
Таики Мацуно



О фильме:
Когда-то на далёком востоке бороздил моря человек по имени Унан. Легенда гласит, что в бесчисленных битвах Унан награбил целую гору золота, которая ночами освещает океан не хуже солнца. С течением лет жизнь Унана угасла, но перед смертью великий Золотой Пират спрятал своё сокровище на одном острове, а кто-то из его команды нарисовал карту. Тот, кто раздобудет эту карту, сможет найти и золото. Многие пираты мечтают найти легендарный остров! И вот карта попадает в руки команды Соломенной Шляпы…







Страна: Япония
Студия: Toei Animation
Продолжительность: 00:50:59
Перевод: Любительский одноголосый, любительский многоголосный



Файл
Качество: BDRip720
Видео: 1280x720 (16:9), 23.976 fps, 5 694 Kbps (0.258 bit/pixel)
Звук:
Аудио #1: AC-3, 48.0 KHz, 2 ch, 224 Kbps, CBR
Аудио #2: AC-3, 48.0 KHz, 2 ch, 224 Kbps, CBR

Общее
Уникальный идентификатор : 237844812376230945658701255189020289403 (0xB2EF3E9FE44AA6C58E30EDCE781C297B)
Полное имя : E:Van.Pis.2000.x264.BDRip720.Torrent-Xzona.mkv
Формат : Matroska
Версия формата : Version 1
Размер файла : 2,19 Гбайт
Продолжительность : 51 м.
Общий поток : 6145 Кбит/сек
Дата кодирования : UTC 2012-11-08 19:02:03
Программа кодирования : mkvmerge v2.5.3 ('Boogie') built on Mar 7 2009 15:00:41
Библиотека кодирования : libebml v0.7.7 + libmatroska v0.8.1

Видео
Идентификатор : 1
Формат : AVC
Формат/Информация : Advanced Video Codec
Профиль формата : High@L4.1
Параметр CABAC формата : Да
Параметр ReFrames формата : 4 кадра
Идентификатор кодека : V_MPEG4/ISO/AVC
Продолжительность : 51 м.
Битрейт : 5694 Кбит/сек
Ширина : 1280 пикселей
Высота : 720 пикселей
Соотношение сторон : 16:9
Режим частоты кадров : Постоянный
Частота кадров : 23,976 кадра/сек
Цветовое пространство : YUV
Субдискретизация насыщенности : 4:2:0
Битовая глубина : 8 бит
Тип развёртки : Прогрессивная
Бит/(Пиксели*Кадры) : 0.258
Размер потока : 1,99 Гбайт (91%)
Библиотека кодирования : x264 core 125 r2200 999b753
Настройки программы : cabac=1 / ref=3 / deblock=1:-1:-1 / analyse=0x3:0x113 / me=umh / subme=10 / psy=1 / psy_rd=1.00:0.15 / mixed_ref=1 / me_range=16 / chroma_me=1 / trellis=2 / 8x8dct=1 / cqm=0 / deadzone=21,11 / fast_pskip=0 / chroma_qp_offset=-3 / threads=9 / lookahead_threads=1 / sliced_threads=0 / nr=0 / decimate=1 / interlaced=0 / bluray_compat=0 / constrained_intra=0 / bframes=3 / b_pyramid=2 / b_adapt=1 / b_bias=0 / direct=1 / weightb=1 / open_gop=0 / weightp=2 / keyint=240 / keyint_min=23 / scenecut=40 / intra_refresh=0 / rc_lookahead=40 / rc=2pass / mbtree=1 / bitrate=5694 / ratetol=1.0 / qcomp=0.60 / qpmin=0 / qpmax=69 / qpstep=4 / cplxblur=20.0 / qblur=0.5 / ip_ratio=1.40 / aq=1:1.00
Язык : English
Default : Да
Forced : Нет

Аудио #1
Идентификатор : 2
Формат : AC-3
Формат/Информация : Audio Coding 3
Расширение режима : CM (complete main)
Параметр Endianness формата : Big
Идентификатор кодека : A_AC3
Продолжительность : 51 м.
Вид битрейта : Постоянный
Битрейт : 224 Кбит/сек
Каналы : 2 канала
Расположение каналов : Front: L R
Частота : 48,0 КГц
Битовая глубина : 16 бит
Метод сжатия : С потерями
Размер потока : 81,7 Мбайт (4%)
Default : Да
Forced : Нет

Аудио #2
Идентификатор : 3
Формат : AC-3
Формат/Информация : Audio Coding 3
Расширение режима : CM (complete main)
Параметр Endianness формата : Big
Идентификатор кодека : A_AC3
Продолжительность : 51 м.
Вид битрейта : Постоянный
Битрейт : 224 Кбит/сек
Каналы : 2 канала
Расположение каналов : Front: L R
Частота : 48,0 КГц
Битовая глубина : 16 бит
Метод сжатия : С потерями
Размер потока : 81,7 Мбайт (4%)
Default : Нет
Forced : Нет





Релиз от: &












   Похожие торренты   Торрент   Размер 
В этой теме нет новых непрочитанных сообщений. Нити / Strings (2004) BDRip720 от Torrent-Xzona | P

4 | 3

2.19 ГБ

В этой теме нет новых непрочитанных сообщений. Известная Вселенная / Known Universe [S01] (2009) BDRip720 от Torrent-Xzona | D

13 | 7

3.77 ГБ

В этой теме нет новых непрочитанных сообщений. Фантазия 2000 / Fantasia 2000 (1999) HDRip-AVC от Torrent-Xzona

14 | 5

1.36 ГБ

В этой теме нет новых непрочитанных сообщений. 102 далматинца / 102 Dalmatians (2000) DVDRip от Torrent-Xzona | D

14 | 2

701.71 МБ

В этой теме нет новых непрочитанных сообщений. Шафт / Shaft (2000) DVDRip от Torrent-Xzona | P 2

6 | 3

1.37 ГБ

В этой теме нет новых непрочитанных сообщений. Миссия: невыполнима 2 / Mission: Impossible II (2000) HDRip от Torrent-Xzona | P | КПК

6 | 3

432.81 МБ

В этой теме нет новых непрочитанных сообщений. Ван-Пис: Фильм десятый Суровый Мир / One Piece: Strong World (2009) BDRip

20 | 2

1.36 ГБ




Вы не можете начинать темы
Вы не можете отвечать на сообщения
Вы не можете редактировать свои сообщения
Вы не можете удалять свои сообщения
Вы не можете добавлять вложения

Перейти:  
Для Мосгорсуда, Роскомнадзора и рекламодателей: mosgorsud-torrent[собачка]yandex.ru
 Вход
ppkBB3cker v.2 © 2008-2014 @ PPK
[ Time : 0.019s | 15 Queries | GZIP : Off ]

Торрент трекер RUTOR.IN, Не можете зайти на rutor.org? Какой новый адрес рутор? Какое зеркало рутор? Не работает rutor.org и зеркала? Тогда наш торрент специально для вас. Rutor.in неофициальное зеркало rutor. В случае если у Вас заблокирован rutor или вдруг Вы не можете на него зайти, то Вы без труда сможете скачать бесплатно и без рекламы последние новинки кино, игр, сериалов и прочего у нас, на Rutor.in. Не нужно использовать прокси, чтобы зайти на рутор, достаточно воспользоваться нашим ресурсом. Все новые фильмы, игры, сериалы, книги и музыка за 2013 и 2014 годы через торрент бесплатно. Скачивайте фильмы в хорошем качестве, игры для пк, xbox, playstation без регистрации. У нас вы найдете новые Зарубежные сериалы и Русские сериалы 2013, 2014, 2015 годов. Оставайтесь с нами, качайте любимые фильмы, игры, сериалы, книги и музыку.
cron