img image001 image001 image001 image001 image001 image001 image001 image001 image001 image001 image001 image001 image001 image001 image001

Planets Sun Sun Sun
Статистика раздачи
Автор: Снежана | Размер: 10.24 ГБ | Добавлен: 27 июл 2013
Раздают: 45    Качают: 5
Скачать торрент
Скачать торрент
Описание торрента

СообщениеДобавлено: 27 июл 2013 

#77

Информация о фильме
Название: Жизнь жуков / Приключения Флика
Оригинальное название: A Bug's Life
Год выхода: 1998
Жанр: Мультипликация
Режиссер: Джон Лассетер, Эндрю Стэнтон
В ролях: Дэйв Фоли, Кевин Спейси, Джулия Луис-Дрейфус, Хайден Панеттьери, Филлис Даллер, Ричард Кайнд, Дэвид Хайд Пирс, Джо Рэнфт, Денис Лири, Джонатан Харрис, Мэдлин Кан, Бонни Хант, Джон Ратценбергер

О фильме:
Действия картины происходят на острове, в колонии муравьев. Среди них особо выделяется изобретатель Флик. Муравьи занимались тем, что собирали дань в виде еды для кузнечиков. Однажды Флик случайно сбросил в воду всю собранную в виде дани еду. Кузнечики в результате чего увеличили дань. Флик решил противостоять этому. Так началась освободительная борьба муравьев за независимость.

Страна: США
Студия: Pixar Animation Studios, Walt Disney Pictures
Продолжительность: 01:34:54
Перевод: Дублированный / Профессиональный многолосый (Киномания / Неизвестный) / Профессиональный двухголосый (Гланц, Королева) / Авторский одноголосый (Живов)

Файл
Кодек: MPEG-4 AVC
Качество: BDRip (1080p)
Видео: 10.5 Мбит/с, 1920х816
Звук: Русский (AC3, 6 ch, 384 Кбит/с), (AC3, 6 ch, 448 Кбит/с), (DTS, 6 ch 1536 Кбит/с), английский (DTS, 6 ch 1536 Кбит/с), (AC3, 2 ch, 192 Кбит/с)
Субтитры: Русские, английские

General
Unique ID : 220567980668059597704135096933748943127 (0xA5EFD90E47FDE78588BC95C30379A917)
Complete name : D:Zizn.Zukov.1998.x264.BDRip.(1080p).FfClub.mkv
Format : Matroska
File size : 10.2 GiB
Duration : 1h 34mn
Overall bit rate : 15.4 Mbps
Movie name : Rip by marcury
Encoded date : UTC 2012-11-11 22:25:02
Writing application : mkvmerge v2.1.0 ('Another Place To Fall') built on Aug 19 2007 13:40:07
Writing library : libebml v0.7.7 + libmatroska v0.8.1
Cover : Yes / Yes / Yes

Video
ID : 1
Format : AVC
Format/Info : Advanced Video Codec
Format profile : High@L4.0
Format settings, CABAC : Yes
Format settings, ReFrames : 5 frames
Format settings, GOP : N=1
Codec ID : V_MPEG4/ISO/AVC
Duration : 1h 34mn
Bit rate : 10.5 Mbps
Width : 1 920 pixels
Height : 816 pixels
Display aspect ratio : 2.35:1
Frame rate : 23.976 fps
Color space : YUV
Chroma subsampling : 4:2:0
Bit depth : 8 bits
Scan type : Progressive
Bits/(Pixel*Frame) : 0.279
Stream size : 6.76 GiB (66%)
Title : Zizn.Zukov.1998.x264.BDRip.(1080p).FfClub
Writing library : x264 core 67 r1145M d2e1e1c
Encoding settings : cabac=1 / ref=5 / deblock=1:-3:-3 / analyse=0x3:0x113 / me=umh / subme=9 / psy_rd=1.3:0.2 / mixed_ref=1 / me_range=64 / chroma_me=1 / trellis=2 / 8x8dct=1 / cqm=0 / deadzone=21,11 / chroma_qp_offset=-3 / threads=6 / nr=0 / decimate=1 / mbaff=0 / bframes=5 / b_pyramid=1 / b_adapt=2 / b_bias=0 / direct=3 / wpredb=1 / keyint=250 / keyint_min=25 / scenecut=40 / rc=2pass / bitrate=10497 / ratetol=1.0 / qcomp=0.60 / qpmin=10 / qpmax=51 / qpstep=4 / cplxblur=20.0 / qblur=0.5 / ip_ratio=1.40 / pb_ratio=1.30 / aq=1:1.00
Language : English

Audio #1
ID : 2
Format : AC-3
Format/Info : Audio Coding 3
Mode extension : CM (complete main)
Codec ID : A_AC3
Duration : 1h 34mn
Bit rate mode : Constant
Bit rate : 448 Kbps
Channel(s) : 6 channels
Channel positions : Front: L C R, Side: L R, LFE
Sampling rate : 48.0 KHz
Bit depth : 16 bits
Compression mode : Lossy
Stream size : 304 MiB (3%)
Title : Русский (AC3, 6 ch, 448 Кбит/с) - ДБ
Language : Russian

Audio #2
ID : 3
Format : AC-3
Format/Info : Audio Coding 3
Mode extension : CM (complete main)
Codec ID : A_AC3
Duration : 1h 34mn
Bit rate mode : Constant
Bit rate : 448 Kbps
Channel(s) : 6 channels
Channel positions : Front: L C R, Side: L R, LFE
Sampling rate : 48.0 KHz
Bit depth : 16 bits
Compression mode : Lossy
Stream size : 304 MiB (3%)
Title : Русский (AC3, 6 ch, 448 Кбит/с) - ПМ (Киномания)
Language : Russian

Audio #3
ID : 4
Format : AC-3
Format/Info : Audio Coding 3
Mode extension : CM (complete main)
Codec ID : A_AC3
Duration : 1h 34mn
Bit rate mode : Constant
Bit rate : 448 Kbps
Channel(s) : 6 channels
Channel positions : Front: L C R, Side: L R, LFE
Sampling rate : 48.0 KHz
Bit depth : 16 bits
Compression mode : Lossy
Stream size : 304 MiB (3%)
Title : Русский (AC3, 6 ch, 448 Кбит/с) - ПМ
Language : Russian

Audio #4
ID : 5
Format : DTS
Format/Info : Digital Theater Systems
Codec ID : A_DTS
Duration : 1h 34mn
Bit rate mode : Constant
Bit rate : 1 510 Kbps
Channel(s) : 6 channels
Channel positions : Front: L C R, Side: L R, LFE
Sampling rate : 48.0 KHz
Bit depth : 24 bits
Compression mode : Lossy
Stream size : 1.00 GiB (10%)
Title : Русский (DTS, 6 ch, 1536 Кбит/с) - ПД (П. Гланц, Н. Казакова)
Language : Russian

Audio #5
ID : 6
Format : AC-3
Format/Info : Audio Coding 3
Mode extension : CM (complete main)
Codec ID : A_AC3
Duration : 1h 34mn
Bit rate mode : Constant
Bit rate : 384 Kbps
Channel(s) : 6 channels
Channel positions : Front: L C R, Side: L R, LFE
Sampling rate : 48.0 KHz
Bit depth : 16 bits
Compression mode : Lossy
Stream size : 261 MiB (2%)
Title : Русский (AC3, 6 ch, 384 Кбит/с) - АП (Живов)
Language : Russian

Audio #6
ID : 7
Format : DTS
Format/Info : Digital Theater Systems
Format profile : ES
Codec ID : A_DTS
Duration : 1h 34mn
Bit rate mode : Constant
Bit rate : 1 510 Kbps
Channel(s) : 6 channels
Channel positions : Front: L C R, Side: L R, LFE
Sampling rate : 48.0 KHz
Bit depth : 24 bits
Compression mode : Lossy
Stream size : 1.00 GiB (10%)
Title : Английский (DTS, 6 ch, 1536 Кбит/с) - Оригинал
Language : English

Audio #7
ID : 8
Format : AC-3
Format/Info : Audio Coding 3
Mode extension : CM (complete main)
Codec ID : A_AC3
Duration : 1h 34mn
Bit rate mode : Constant
Bit rate : 192 Kbps
Channel(s) : 2 channels
Channel positions : Front: L R
Sampling rate : 48.0 KHz
Bit depth : 16 bits
Compression mode : Lossy
Stream size : 130 MiB (1%)
Title : Английский (AC3, 2 ch, 192 Кбит/с) - Комментарии
Language : English

Text #1
ID : 9
Format : UTF-8
Codec ID : S_TEXT/UTF8
Codec ID/Info : UTF-8 Plain Text
Language : Russian

Text #2
ID : 10
Format : UTF-8
Codec ID : S_TEXT/UTF8
Codec ID/Info : UTF-8 Plain Text
Language : English



Релиз группы: Filmoff Club
Автор рипа: marcury

При копировании файлов и оформления раздачи на других трекерах - ОБЯЗАТЕЛЬНО размещать баннер и указывать релиз-группу. http://img23.binimage.org/25/a6/84/banner.gif



Релиз от:



   Похожие торренты   Торрент   Размер 
В этой теме нет новых непрочитанных сообщений. Жизнь жуков / Приключения Флика / A Bug's Life (1998) BDRip от ExKinoRay

10 | 2

1.45 ГБ

В этой теме нет новых непрочитанных сообщений. Приключения Флика / Жизнь жуков / A Bug's Life (1998) BDRip от HQCLUB

6 | 4

2.9 ГБ

В этой теме нет новых непрочитанных сообщений. Приключения Флика / Жизнь жуков / A Bug's Life (1998) BDRip *RERip* от HELLYWOOD

378 | 12

1.45 ГБ

В этой теме нет новых непрочитанных сообщений. A Bug's Life / Приключения Флика / Жизнь жуков (1998) BDRip 720p от HDClub | D, 2 x P, P2, A

49 | 9

4.38 ГБ

В этой теме нет новых непрочитанных сообщений. Приключения Флика / Жизнь жуков / A Bug's Life (1998) BDRip 720p от Leonardo and Scarabey

198 | 32

2.79 ГБ

В этой теме нет новых непрочитанных сообщений. Приключения Флика / Жизнь жуков / A Bug's Life (1998) HDRip | D

173 | 12

747.12 МБ

В этой теме нет новых непрочитанных сообщений. Приключения Флика / A Bug's Life (1998) BDRip 1080p

91 | 6

4.37 ГБ




Вы не можете начинать темы
Вы не можете отвечать на сообщения
Вы не можете редактировать свои сообщения
Вы не можете удалять свои сообщения
Вы не можете добавлять вложения

Перейти:  
Для Мосгорсуда, Роскомнадзора и рекламодателей: mosgorsud-torrent[собачка]yandex.ru
 Вход
ppkBB3cker v.2 © 2008-2014 @ PPK
[ Time : 0.074s | 15 Queries | GZIP : Off ]

Торрент трекер RUTOR.IN, Не можете зайти на rutor.org? Какой новый адрес рутор? Какое зеркало рутор? Не работает rutor.org и зеркала? Тогда наш торрент специально для вас. Rutor.in неофициальное зеркало rutor. В случае если у Вас заблокирован rutor или вдруг Вы не можете на него зайти, то Вы без труда сможете скачать бесплатно и без рекламы последние новинки кино, игр, сериалов и прочего у нас, на Rutor.in. Не нужно использовать прокси, чтобы зайти на рутор, достаточно воспользоваться нашим ресурсом. Все новые фильмы, игры, сериалы, книги и музыка за 2013 и 2014 годы через торрент бесплатно. Скачивайте фильмы в хорошем качестве, игры для пк, xbox, playstation без регистрации. У нас вы найдете новые Зарубежные сериалы и Русские сериалы 2013, 2014, 2015 годов. Оставайтесь с нами, качайте любимые фильмы, игры, сериалы, книги и музыку.
cron