img image001 image001 image001 image001 image001 image001 image001 image001 image001 image001 image001 image001 image001 image001 image001

Planets Sun Sun Sun
Статистика раздачи
Автор: Снежана | Размер: 1.46 ГБ | Добавлен: 27 июл 2013
Раздают: 375    Качают: 16
Скачать торрент
Скачать торрент
Описание торрента

СообщениеДобавлено: 27 июл 2013 


Секретная служба Санта-Клауса: Операция «Глобальное рождество» / Arthur Christmas
«А вам слабо развезти 2 миллиарда подарков за одну ночь?»

Страна: Великобритания, США
Жанр: мультфильм, драма, комедия, семейный
Год выпуска: 2011
Продолжительность: 01:37:32
Перевод: Профессиональный (дублированный) - (Лицензия)
Субтитры: Нет

Режиссер: Сара Смит / Sarah Smith, Бэрри Кук / Barry Cook

Роли озвучивали: Джеймс МакЭвой (Arthur, озвучка), Хью Лори (Steve), Билл Найи (Grandsanta), Джим Броудбент (Santa), Имелда Стонтон (Mrs. Santa), Эшли Дженсен (Bryony), Марк Вуттон (Peter), Лора Линни (North Pole Computer / S-1 Computer), Ева Лонгория (Chief De Silva), Рамона Маркес (Gwen), Майкл Пэлин (Ernie Clicker), Санджив Бхаскар (Lead Elf)

Описание: Фильм приоткрывает завесу тайны над тем, каким образом Санта-Клаусу удается развезти подарки всем детям на Земле всего за одну ночь.



Качество: BDRip (Автор рипа Yabrat)
Формат: AVI
Видео: 704x384 (1.83:1), 23.976 fps, XviD build 65 ~1748 kbps avg, 0.27 bit/pixel
Аудио: 48 kHz, AC3 Dolby Digital, 3/2 (L,C,R,l,r) + LFE ch, ~384 kbps
Субтитры: Отсутствуют


[Исходник Sekretnaja.sluzhba.Santa-Klausa.2011.MPEG-4-AVC.BluRay-Remux(1080p)][/font]


Бюджет: $99 000 000
Сборы в США: $46 462 469
Сборы в России: $6 685 179
Сборы в мире: $147 419 472
Мировая премьера: 11 ноября 2011
Релиз на DVD: 27 ноября 2012, «Columbia/Sony»
Релиз на Blu-ray: 27 ноября 2012, «Columbia/Sony»


Роли дублировали: Антон Колесников (Arthur), Игорь Балалаев (Steve), Александр Леньков (Grandsanta), Александр Новиков (Santa), Людмила Гнилова (Mrs. Santa), Ольга Шорохова (Bryony), Илья Хвостиков (Peter), Наталья Грачева (North Pole Computer / S-1 Computer), Ольга Голованова (Chief De Silva), Анна Денисова (Gwen), Константин Карасик, Диомид Виноградов


Код:
Complete name                    : Sekretnaya sluzhba Santa-Klausa (1.46).avi
Format                           : AVI
Format/Info                      : Audio Video Interleave
File size                        : 1.46 GiB
Duration                         : 1h 37mn
Overall bit rate                 : 2 142 Kbps
Writing application              : VirtualDubMod 1.5.10.3
Writing library                  : VirtualDubMod build 2550/release
Video
ID                               : 0
Format                           : MPEG-4 Visual
Format profile                   : Advanced Simple@L5
Format settings, BVOP            : Yes
Format settings, QPel            : No
Format settings, GMC             : No warppoints
Format settings, Matrix          : Custom
Codec ID                         : DX50
Codec ID/Hint                    : DivX 5
Duration                         : 1h 37mn
Bit rate                         : 1 749 Kbps
Width                            : 704 pixels
Height                           : 384 pixels
Display aspect ratio             : 16:9
Frame rate                       : 23.976 fps
Color space                      : YUV
Chroma subsampling               : 4:2:0
Bit depth                        : 8 bits
Scan type                        : Progressive
Bits/(Pixel*Frame)               : 0.270
Stream size                      : 1.19 GiB (82%)
Writing library                  : XviD 65
Audio
ID                               : 1
Format                           : AC-3
Format/Info                      : Audio Coding 3
Mode extension                   : CM (complete main)
Codec ID                         : 2000
Duration                         : 1h 37mn
Bit rate mode                    : Constant
Bit rate                         : 384 Kbps
Channel(s)                       : 6 channels
Channel positions                : Front: L C R, Side: L R, LFE
Sampling rate                    : 48.0 KHz
Bit depth                        : 16 bits
Stream size                      : 268 MiB (18%)
Alignment                        : Split accross interleaves
Interleave, duration             : 42 ms (1.00 video frame)
Interleave, preload duration     : 500 ms



   Похожие торренты   Торрент   Размер 
В этой теме нет новых непрочитанных сообщений. Секретная служба Санта-Клауса / Arthur Christmas (2011) BDRip | Лицензия от INTERCINEMA

0 | 1

1.45 ГБ

В этой теме нет новых непрочитанных сообщений. Секретная служба Санта-Клауса / Arthur Christmas (2011) BDRip от HQCLUB | Лицензия

763 | 26

1.45 ГБ

В этой теме нет новых непрочитанных сообщений. Секретная служба Санта-Клауса / Arthur Christmas (2011) BDRip-AVC от potroks | D | Лицензия

36 | 6

2.18 ГБ

В этой теме нет новых непрочитанных сообщений. Секретная служба Санта-Клауса / Arthur Christmas (2011) BDRip 720p | Лицензия

25 | 2

4.04 ГБ

В этой теме нет новых непрочитанных сообщений. Секретная служба Санта-Клауса / Arthur Christmas (2011) BDRip 1080p | Лицензия

4 | 4

9.19 ГБ

В этой теме нет новых непрочитанных сообщений. Секретная служба Санта-Клауса / Arthur Christmas (2011) HDRip | Лицензия

36 | 3

699.45 МБ

В этой теме нет новых непрочитанных сообщений. Секретная служба Санта-Клауса / Arthur Christmas (2011) HDRip | Лицензия

23 | 3

1.37 ГБ




Вы не можете начинать темы
Вы не можете отвечать на сообщения
Вы не можете редактировать свои сообщения
Вы не можете удалять свои сообщения
Вы не можете добавлять вложения

Перейти:  
Для Мосгорсуда, Роскомнадзора и рекламодателей: mosgorsud-torrent[собачка]yandex.ru
 Вход
ppkBB3cker v.2 © 2008-2014 @ PPK
[ Time : 0.037s | 16 Queries | GZIP : Off ]

Торрент трекер RUTOR.IN, Не можете зайти на rutor.org? Какой новый адрес рутор? Какое зеркало рутор? Не работает rutor.org и зеркала? Тогда наш торрент специально для вас. Rutor.in неофициальное зеркало rutor. В случае если у Вас заблокирован rutor или вдруг Вы не можете на него зайти, то Вы без труда сможете скачать бесплатно и без рекламы последние новинки кино, игр, сериалов и прочего у нас, на Rutor.in. Не нужно использовать прокси, чтобы зайти на рутор, достаточно воспользоваться нашим ресурсом. Все новые фильмы, игры, сериалы, книги и музыка за 2013 и 2014 годы через торрент бесплатно. Скачивайте фильмы в хорошем качестве, игры для пк, xbox, playstation без регистрации. У нас вы найдете новые Зарубежные сериалы и Русские сериалы 2013, 2014, 2015 годов. Оставайтесь с нами, качайте любимые фильмы, игры, сериалы, книги и музыку.