img image001 image001 image001 image001 image001 image001 image001 image001 image001 image001 image001 image001 image001 image001 image001

Planets Sun Sun Sun
Статистика раздачи
Автор: Снежана | Размер: 524.41 МБ | Добавлен: 27 июл 2013
Раздают: 788    Качают: 16
Скачать торрент
Скачать торрент
Описание торрента

СообщениеДобавлено: 27 июл 2013 

#77

Информация о фильме
Название: Рапунцель: Счастлива навсегда
Оригинальное название: Tangled Ever After
Год выхода: 2012
Жанр: Мультфильм, короткометражка, комедия, приключения
Режиссер: Нэйтан Грено, Байрон Ховард
В ролях: Мэнди Мур, Закари Левай, Алан Дэйл, Пол Ф. Томпкинс, Кэри Уолгрен, Марк Аллан Стюарт, Байрон Ховард, Нэйтан Грено, Софи И. Агирр, Роберт Бэгнелл

О фильме:
В волшебном королевстве грандиозный праздник: Рапунцель идет под венец! Все затаив дыхание ждут торжественной минуты. Но свадебная церемония грозит обернуться катастрофой: конь Максимус и хамелеон Паскаль теряют подвенечные кольца. У них остается всего несколько минут, чтобы найти пропажу.



Страна: США
Студия: Walt Disney Animation Studios
Продолжительность: 00:06:29
Перевод: Дублированный [Невафильм] + Оригинал

Файл
Кодек: x264
Качество: BDRip 1080p (источник: HDT Blu-Ray Remux / 1080p)
Видео: 1920х1080 (16:9), 10000 Kbps, 23.976 fps, 0.201 bit/pixel
Аудио #1: 48.0 kHz, AC3 Dolby Digital, 3/2 (L,C,R,l,r) + LFE ch, 640 kbps avg [Rus]
Аудио #2: 48.0 kHz, AC3 Dolby Digital, 3/2 (L,C,R,l,r) + LFE ch, 640 kbps avg [Eng]
Субтитры: Русские (Форсированные, полные), украинские, английские



x264 [info]: frame I:116 Avg QP:10.93 size:412678
x264 [info]: frame P:3163 Avg QP:15.74 size: 93980
x264 [info]: frame B:6049 Avg QP:20.32 size: 23539
General
Unique ID : 252929052259534685098160900395837720827 (0xBE485D11F452A63AB41509350E8888FB)
Complete name : D:Tangled.Ever.After.2012.x264.BDRip.1080p.mkv
Format : Matroska
Format version : Version 2
File size : 524 MiB
Duration : 6mn 29s
Overall bit rate : 11.3 Mbps
Movie name : Tangled Ever After (2012) BDRip 1080p
Encoded date : UTC 2012-11-13 16:01:42
Writing application : mkvmerge v5.8.0 ('No Sleep / Pillow') built on Sep 2 2012 15:37:04
Writing library : libebml v1.2.3 + libmatroska v1.3.0

Video
ID : 1
Format : AVC
Format/Info : Advanced Video Codec
Format profile : High@L4.1
Format settings, CABAC : Yes
Format settings, ReFrames : 4 frames
Codec ID : V_MPEG4/ISO/AVC
Duration : 6mn 29s
Bit rate : 10 000 Kbps
Width : 1 920 pixels
Height : 1 080 pixels
Display aspect ratio : 16:9
Frame rate mode : Constant
Frame rate : 23.976 fps
Color space : YUV
Chroma subsampling : 4:2:0
Bit depth : 8 bits
Scan type : Progressive
Bits/(Pixel*Frame) : 0.201
Stream size : 455 MiB (87%)
Title : Tangled Ever After
Writing library : x264 core 128 r2216 198a7ea
Encoding settings : cabac=1 / ref=4 / deblock=1:-2:-2 / analyse=0x3:0x133 / me=tesa / subme=11 / psy=1 / psy_rd=1.00:0.10 / mixed_ref=1 / me_range=64 / chroma_me=1 / trellis=2 / 8x8dct=1 / cqm=0 / deadzone=21,11 / fast_pskip=0 / chroma_qp_offset=-3 / threads=6 / lookahead_threads=1 / sliced_threads=0 / nr=0 / decimate=0 / interlaced=0 / bluray_compat=0 / constrained_intra=0 / bframes=5 / b_pyramid=2 / b_adapt=2 / b_bias=0 / direct=3 / weightb=1 / open_gop=0 / weightp=2 / keyint=240 / keyint_min=23 / scenecut=40 / intra_refresh=0 / rc_lookahead=60 / rc=2pass / mbtree=1 / bitrate=10000 / ratetol=1.0 / qcomp=0.60 / qpmin=0 / qpmax=69 / qpstep=4 / cplxblur=20.0 / qblur=0.5 / ip_ratio=1.40 / aq=1:1.00
Language : English
Default : Yes
Forced : No

Audio #1
ID : 2
Format : AC-3
Format/Info : Audio Coding 3
Mode extension : CM (complete main)
Format settings, Endianness : Big
Codec ID : A_AC3
Duration : 6mn 29s
Bit rate mode : Constant
Bit rate : 640 Kbps
Channel(s) : 6 channels
Channel positions : Front: L C R, Side: L R, LFE
Sampling rate : 48.0 KHz
Bit depth : 16 bits
Compression mode : Lossy
Stream size : 29.7 MiB (6%)
Title : AC3 5.1ch 640 kbps - Дублированный [Невафильм]
Language : Russian
Default : Yes
Forced : No

Audio #2
ID : 3
Format : AC-3
Format/Info : Audio Coding 3
Mode extension : CM (complete main)
Format settings, Endianness : Big
Codec ID : A_AC3
Duration : 6mn 29s
Bit rate mode : Constant
Bit rate : 640 Kbps
Channel(s) : 6 channels
Channel positions : Front: L C R, Side: L R, LFE
Sampling rate : 48.0 KHz
Bit depth : 16 bits
Compression mode : Lossy
Stream size : 29.7 MiB (6%)
Title : AC3 5.1ch 640 kbps - Английский
Language : English
Default : No
Forced : No

Text #1
ID : 4
Format : UTF-8
Codec ID : S_TEXT/UTF8
Codec ID/Info : UTF-8 Plain Text
Title : Русские (форсированные)
Language : Russian
Default : No
Forced : No

Text #2
ID : 5
Format : UTF-8
Codec ID : S_TEXT/UTF8
Codec ID/Info : UTF-8 Plain Text
Title : Русские (полные)
Language : Russian
Default : No
Forced : No

Text #3
ID : 6
Format : UTF-8
Codec ID : S_TEXT/UTF8
Codec ID/Info : UTF-8 Plain Text
Title : Украинские
Language : Ukrainian
Default : No
Forced : No

Text #4
ID : 7
Format : UTF-8
Codec ID : S_TEXT/UTF8
Codec ID/Info : UTF-8 Plain Text
Title : Английские
Language : English
Default : No
Forced : No



   Похожие торренты   Торрент   Размер 
В этой теме нет новых непрочитанных сообщений. Рапунцель: Счастлива навсегда / Tangled Ever After (2012) BDRip 720p от HQ-ViDEO

322 | 10

268.37 МБ

В этой теме нет новых непрочитанных сообщений. Рапунцель: Счастлива навсегда / Tangled Ever After (2012) BDRip-AVC от leonardo 59 & Scarabey | Лицензия

219 | 18

111.85 МБ

В этой теме нет новых непрочитанных сообщений. Рапунцель: Счастлива навсегда / Tangled Ever After (2012) BDRip 720p от leonardo 59 & Scarabey | Лицензия

579 | 24

231.91 МБ

В этой теме нет новых непрочитанных сообщений. Рапунцель: Счастлива навсегда / Tangled Ever After (2012) HDRip

207 | 9

107.15 МБ

В этой теме нет новых непрочитанных сообщений. Рапунцель: Запутанная история / Tangled (2010) BDRip 1080p

700 | 37

4.37 ГБ

В этой теме нет новых непрочитанных сообщений. Рапунцель: Запутанная история / Tangled (2010) BDRip 1080p | 3D-Video

99 | 15

7.69 ГБ

В этой теме нет новых непрочитанных сообщений. Рапунцель: Запутанная история / Tangled (2010) BDrip 1080p | 3D-Video / Анаглиф

24 | 5

5.55 ГБ




Вы не можете начинать темы
Вы не можете отвечать на сообщения
Вы не можете редактировать свои сообщения
Вы не можете удалять свои сообщения
Вы не можете добавлять вложения

Перейти:  
Для Мосгорсуда, Роскомнадзора и рекламодателей: mosgorsud-torrent[собачка]yandex.ru
 Вход
ppkBB3cker v.2 © 2008-2014 @ PPK
[ Time : 0.053s | 14 Queries | GZIP : Off ]

Торрент трекер RUTOR.IN, Не можете зайти на rutor.org? Какой новый адрес рутор? Какое зеркало рутор? Не работает rutor.org и зеркала? Тогда наш торрент специально для вас. Rutor.in неофициальное зеркало rutor. В случае если у Вас заблокирован rutor или вдруг Вы не можете на него зайти, то Вы без труда сможете скачать бесплатно и без рекламы последние новинки кино, игр, сериалов и прочего у нас, на Rutor.in. Не нужно использовать прокси, чтобы зайти на рутор, достаточно воспользоваться нашим ресурсом. Все новые фильмы, игры, сериалы, книги и музыка за 2013 и 2014 годы через торрент бесплатно. Скачивайте фильмы в хорошем качестве, игры для пк, xbox, playstation без регистрации. У нас вы найдете новые Зарубежные сериалы и Русские сериалы 2013, 2014, 2015 годов. Оставайтесь с нами, качайте любимые фильмы, игры, сериалы, книги и музыку.