img image001 image001 image001 image001 image001 image001 image001 image001 image001 image001 image001 image001 image001 image001 image001

Planets Sun Sun Sun
Статистика раздачи
Автор: Снежана | Размер: 5.77 ГБ | Добавлен: 27 июл 2013
Раздают: 308    Качают: 7
Скачать торрент
Скачать торрент
Описание торрента

СообщениеДобавлено: 27 июл 2013 

#77

Информация о фильме
Название: Секретная служба Санта-Клауса
Оригинальное название: Arthur Christmas
Год выхода: 2011
Жанр: мультфильм, драма, комедия, семейный
Режиссер: Сара Смит, Бэрри Кук
В ролях: Джеймс МакЭвой, Хью Лори, Билл Найи, Джим Броудбент, Имелда Стонтон, Эшли Дженсен, Марк Вуттон, Лора Линни, Ева Лонгория, Рамона Маркес

О фильме: Фильм приоткрывает завесу тайны над тем, каким образом Санта-Клаусу удается развезти подарки всем детям на Земле всего за одну ночь.



Выпущено: Sony Pictures Animation
Продолжительность: 01:37:33
Перевод: Дублированный (лицензия)

Файл
Кодек: x264
Качество: BDRip (источник: Blu-ray Disc)
Видео: 1920x1040 (16:9), 23.976 fps, 7177 kbps
Аудио #1: AC-3, 6 ch, 640 kbps (Rus)
Аудио #2: AC-3, 6 ch, 640 kbps (Eng)
Субтитры: Русские (форс,полные), Английские
Скачать: сэмпл

Скриншоты

Общее
Уникальный идентификатор : 174479834945763864047193247567086669577 (0x834398089C2C1E0781BF473C4844CF09)
Полное имя : Arthur.Christmas.2011.BDRip.1080p.Rus.Eng.mkv
Формат : Matroska
Версия формата : Version 2
Размер файла : 5,77 Гбайт
Продолжительность : 1 ч. 37 м.
Общий поток : 8462 Кбит/сек
Название фильма : Секретная служба Санта-Клауса / Arthur Christmas (2011)
Дата кодирования : UTC 2012-11-14 18:08:51
Программа кодирования : mkvmerge v5.8.0 ('No Sleep / Pillow') built on Sep 2 2012 15:37:04
Библиотека кодирования : libebml v1.2.3 + libmatroska v1.3.0

Видео
Идентификатор : 1
Формат : AVC
Формат/Информация : Advanced Video Codec
Профиль формата : High@L4.1
Параметр CABAC формата : Да
Параметр ReFrames формата : 4 кадра
Идентификатор кодека : V_MPEG4/ISO/AVC
Продолжительность : 1 ч. 37 м.
Битрейт : 7177 Кбит/сек
Ширина : 1920 пикселей
Высота : 1040 пикселей
Соотношение сторон : 16:9
Частота кадров : 23,976 кадра/сек
Цветовое пространство : YUV
Субдискретизация насыщенности : 4:2:0
Битовая глубина : 8 бит
Тип развёртки : Прогрессивная
Бит/(Пиксели*Кадры) : 0.150
Размер потока : 4,78 Гбайт (83%)
Заголовок : Release by AlexKa
Библиотека кодирования : x264 core 129 r2230 1cffe9f
Настройки программы : cabac=1 / ref=4 / deblock=1:0:0 / analyse=0x3:0x133 / me=umh / subme=10 / psy=1 / psy_rd=1.00:0.00 / mixed_ref=1 / me_range=32 / chroma_me=1 / trellis=2 / 8x8dct=1 / cqm=0 / deadzone=21,11 / fast_pskip=0 / chroma_qp_offset=-2 / threads=12 / lookahead_threads=2 / sliced_threads=0 / nr=0 / decimate=0 / interlaced=0 / bluray_compat=0 / constrained_intra=0 / bframes=5 / b_pyramid=2 / b_adapt=2 / b_bias=0 / direct=3 / weightb=1 / open_gop=0 / weightp=2 / keyint=240 / keyint_min=23 / scenecut=40 / intra_refresh=0 / rc=2pass / mbtree=0 / bitrate=7177 / ratetol=1.0 / qcomp=0.60 / qpmin=0 / qpmax=69 / qpstep=4 / cplxblur=20.0 / qblur=0.5 / ip_ratio=1.40 / pb_ratio=1.30 / aq=1:1.00
Язык : English

Аудио #1
Идентификатор : 2
Формат : AC-3
Формат/Информация : Audio Coding 3
Расширение режима : CM (complete main)
Идентификатор кодека : A_AC3
Продолжительность : 1 ч. 37 м.
Вид битрейта : Постоянный
Битрейт : 640 Кбит/сек
Каналы : 6 каналов
Расположение каналов : Front: L C R, Side: L R, LFE
Частота : 48,0 КГц
Битовая глубина : 16 бит
Метод сжатия : С потерями
Размер потока : 447 Мбайт (8%)
Заголовок : Rus
Язык : Russian

Аудио #2
Идентификатор : 3
Формат : AC-3
Формат/Информация : Audio Coding 3
Расширение режима : CM (complete main)
Идентификатор кодека : A_AC3
Продолжительность : 1 ч. 37 м.
Вид битрейта : Постоянный
Битрейт : 640 Кбит/сек
Каналы : 6 каналов
Расположение каналов : Front: L C R, Side: L R, LFE
Частота : 48,0 КГц
Битовая глубина : 16 бит
Метод сжатия : С потерями
Размер потока : 447 Мбайт (8%)
Заголовок : Eng
Язык : English

Текст #1
Идентификатор : 4
Формат : UTF-8
Идентификатор кодека : S_TEXT/UTF8
Идентификатор кодека/Информация : UTF-8 Plain Text
Заголовок : Rus forced
Язык : Russian

Текст #2
Идентификатор : 5
Формат : UTF-8
Идентификатор кодека : S_TEXT/UTF8
Идентификатор кодека/Информация : UTF-8 Plain Text
Заголовок : Rus
Язык : Russian

Текст #3
Идентификатор : 6
Формат : UTF-8
Идентификатор кодека : S_TEXT/UTF8
Идентификатор кодека/Информация : UTF-8 Plain Text
Заголовок : Eng
Язык : English

Меню
00:00:00.000 : :Chapter 01
00:04:37.777 : :Chapter 02
00:08:52.615 : :Chapter 03
00:16:27.152 : :Chapter 04
00:19:48.729 : :Chapter 05
00:23:23.819 : :Chapter 06
00:28:59.320 : :Chapter 07
00:33:28.923 : :Chapter 08
00:39:22.276 : :Chapter 09
00:44:45.557 : :Chapter 10
00:52:49.374 : :Chapter 11
00:58:48.942 : :Chapter 12
01:06:00.289 : :Chapter 13
01:13:49.341 : :Chapter 14
01:20:36.957 : :Chapter 15
01:29:48.174 : :Chapter 16
x264 [info]: frame I:1480 Avg QP:15.24 size:227926
x264 [info]: frame P:38237 Avg QP:18.11 size: 72036
x264 [info]: frame B:100611 Avg QP:19.80 size: 21475



   Похожие торренты   Торрент   Размер 
В этой теме нет новых непрочитанных сообщений. Секретная служба Санта-Клауса / Arthur Christmas (2011) BDRip 1080p | Лицензия

4 | 4

9.19 ГБ

В этой теме нет новых непрочитанных сообщений. Секретная служба Санта-Клауса / Arthur Christmas (2011) Blu-ray 1080p от Youtracker и HDCLUB | лицензия

2 | 6

32.1 ГБ

В этой теме нет новых непрочитанных сообщений. Секретная служба Санта-Клауса / Arthur Christmas (2011) BDRip-AVC от R.G. HD-Films | 60 fps

169 | 7

3.58 ГБ

В этой теме нет новых непрочитанных сообщений. Секретная служба Санта-Клауса / Arthur Christmas (2011) BDRip | Лицензия

375 | 16

1.46 ГБ

В этой теме нет новых непрочитанных сообщений. Секретная служба Санта-Клауса / Arthur Christmas (2011) BDRip | Лицензия от INTERCINEMA

0 | 1

1.45 ГБ

В этой теме нет новых непрочитанных сообщений. Секретная служба Санта-Клауса / Arthur Christmas (2011) BDRip 720p by HDgroup

0 | 2

2.19 ГБ

В этой теме нет новых непрочитанных сообщений. Секретная служба Санта-Клауса / Arthur Christmas (2011) BDRip-AVC от potroks | D | Лицензия

36 | 6

2.18 ГБ




Вы не можете начинать темы
Вы не можете отвечать на сообщения
Вы не можете редактировать свои сообщения
Вы не можете удалять свои сообщения
Вы не можете добавлять вложения

Перейти:  
Для Мосгорсуда, Роскомнадзора и рекламодателей: mosgorsud-torrent[собачка]yandex.ru
 Вход
ppkBB3cker v.2 © 2008-2014 @ PPK
[ Time : 0.018s | 15 Queries | GZIP : Off ]

Торрент трекер RUTOR.IN, Не можете зайти на rutor.org? Какой новый адрес рутор? Какое зеркало рутор? Не работает rutor.org и зеркала? Тогда наш торрент специально для вас. Rutor.in неофициальное зеркало rutor. В случае если у Вас заблокирован rutor или вдруг Вы не можете на него зайти, то Вы без труда сможете скачать бесплатно и без рекламы последние новинки кино, игр, сериалов и прочего у нас, на Rutor.in. Не нужно использовать прокси, чтобы зайти на рутор, достаточно воспользоваться нашим ресурсом. Все новые фильмы, игры, сериалы, книги и музыка за 2013 и 2014 годы через торрент бесплатно. Скачивайте фильмы в хорошем качестве, игры для пк, xbox, playstation без регистрации. У нас вы найдете новые Зарубежные сериалы и Русские сериалы 2013, 2014, 2015 годов. Оставайтесь с нами, качайте любимые фильмы, игры, сериалы, книги и музыку.
cron