img image001 image001 image001 image001 image001 image001 image001 image001 image001 image001 image001 image001 image001 image001 image001

Planets Sun Sun Sun
Статистика раздачи
Автор: Снежана | Размер: 4.37 ГБ | Добавлен: 27 июл 2013, 09:09
Раздают: 316    Качают: 14
Скачать торрент
Скачать торрент
Описание торрента

СообщениеДобавлено: 27 июл 2013, 09:09 

#77

Информация о фильме
Название: Храбрая сердцем
Оригинальное название: Brave
Год выхода: 2012
Жанр: мультфильм, фэнтези, комедия, приключения, семейный
Режиссер: Марк Эндрюс, Бренда Чэпман, Стив Пурселл
В ролях: Келли Макдоналд, Эмма Томпсон, Билли Коннолли, Джули Уолтерс, Робби Колтрейн, Кевин МакКидд, Крэйг Фергюсон, Сэлли Кингхорн, Эйлид Фрайзер, Пейджи Баркер

О фильме: Испокон веков мифы и легенды окутывают загадочной пеленой живописные отроги Шотландских гор. Искусной лучнице Мериде приходится выбирать свой путь в жизни самостоятельно, и однажды она отказывается следовать древним традициям королевства, бросая вызов могущественным шотландским кланам и их предводителям: нескладному лорду МакГаффину, угрюмому лорду Макинтошу и сварливому лорду Дингволлу. Неосторожные поступки Мериды грозят повергнуть королевство в хаос, и тогда она отправляется за советом к эксцентричной отшельнице, которая вместо помощи накладывает на Мериду опасное заклятье. Юной принцессе предстоит полагаться только на собственную храбрость, чтобы преодолеть могущественное волшебство и победить самого страшного зверя из тех, что водятся в горных долинах.



Выпущено: Walt Disney Pictures
Продолжительность: 01:34:12
Перевод: Дублированный (Лицензия BD-CEE)

Файл
Кодек: x264
Качество: BDRip (источник: Blu-ray Disc)
Видео: 1920x800 (2,40:1), 23.976 fps, 5555 kbps
Аудио #1: AC-3, 6 ch, 448 kbps (Rus)
Аудио #2: AC-3, 6 ch, 640 kbps (Eng)
Субтитры: Русские, Английские
Скачать: сэмпл

Скриншоты

Общее
Уникальный идентификатор : 176067504423509061489649152996588476519 (0x84755E2EB66922A08CCB936F45AD5867)
Полное имя : Brave.2012.BDRip.1080p.Rus.Eng.mkv
Формат : Matroska
Версия формата : Version 2
Размер файла : 4,37 Гбайт
Продолжительность : 1 ч. 34 м.
Общий поток : 6645 Кбит/сек
Название фильма : Храбрая сердцем / Brave (2012)
Дата кодирования : UTC 2012-11-16 13:37:30
Программа кодирования : mkvmerge v5.8.0 ('No Sleep / Pillow') built on Sep 2 2012 15:37:04
Библиотека кодирования : libebml v1.2.3 + libmatroska v1.3.0

Видео
Идентификатор : 1
Формат : AVC
Формат/Информация : Advanced Video Codec
Профиль формата : High@L4.1
Параметр CABAC формата : Да
Параметр ReFrames формата : 5 кадров
Идентификатор кодека : V_MPEG4/ISO/AVC
Продолжительность : 1 ч. 34 м.
Битрейт : 5555 Кбит/сек
Ширина : 1920 пикселей
Высота : 800 пикселей
Соотношение сторон : 2,40:1
Частота кадров : 23,976 кадра/сек
Цветовое пространство : YUV
Субдискретизация насыщенности : 4:2:0
Битовая глубина : 8 бит
Тип развёртки : Прогрессивная
Бит/(Пиксели*Кадры) : 0.151
Размер потока : 3,57 Гбайт (82%)
Заголовок : Release by AlexKa
Библиотека кодирования : x264 core 129 r2230 1cffe9f
Настройки программы : cabac=1 / ref=5 / deblock=1:0:0 / analyse=0x3:0x133 / me=umh / subme=10 / psy=1 / psy_rd=1.00:0.00 / mixed_ref=1 / me_range=32 / chroma_me=1 / trellis=2 / 8x8dct=1 / cqm=0 / deadzone=21,11 / fast_pskip=0 / chroma_qp_offset=-2 / threads=12 / lookahead_threads=2 / sliced_threads=0 / nr=0 / decimate=0 / interlaced=0 / bluray_compat=0 / constrained_intra=0 / bframes=5 / b_pyramid=2 / b_adapt=2 / b_bias=0 / direct=3 / weightb=1 / open_gop=0 / weightp=2 / keyint=240 / keyint_min=23 / scenecut=40 / intra_refresh=0 / rc=2pass / mbtree=0 / bitrate=5555 / ratetol=1.0 / qcomp=0.60 / qpmin=0 / qpmax=69 / qpstep=4 / cplxblur=20.0 / qblur=0.5 / ip_ratio=1.40 / pb_ratio=1.30 / aq=1:0.70
Язык : English

Аудио #1
Идентификатор : 2
Формат : AC-3
Формат/Информация : Audio Coding 3
Расширение режима : CM (complete main)
Идентификатор кодека : A_AC3
Продолжительность : 1 ч. 34 м.
Вид битрейта : Постоянный
Битрейт : 448 Кбит/сек
Каналы : 6 каналов
Расположение каналов : Front: L C R, Side: L R, LFE
Частота : 48,0 КГц
Битовая глубина : 16 бит
Метод сжатия : С потерями
Размер потока : 302 Мбайт (7%)
Заголовок : Rus
Язык : Russian

Аудио #2
Идентификатор : 3
Формат : AC-3
Формат/Информация : Audio Coding 3
Расширение режима : CM (complete main)
Идентификатор кодека : A_AC3
Продолжительность : 1 ч. 34 м.
Вид битрейта : Постоянный
Битрейт : 640 Кбит/сек
Каналы : 6 каналов
Расположение каналов : Front: L C R, Side: L R, LFE
Частота : 48,0 КГц
Битовая глубина : 16 бит
Метод сжатия : С потерями
Размер потока : 431 Мбайт (10%)
Заголовок : Eng
Язык : English

Текст #1
Идентификатор : 4
Формат : UTF-8
Идентификатор кодека : S_TEXT/UTF8
Идентификатор кодека/Информация : UTF-8 Plain Text
Заголовок : Rus
Язык : Russian

Текст #2
Идентификатор : 5
Формат : UTF-8
Идентификатор кодека : S_TEXT/UTF8
Идентификатор кодека/Информация : UTF-8 Plain Text
Заголовок : Eng
Язык : English

Меню
00:00:00.000 : :Chapter 01
00:04:22.845 : :Chapter 02
00:09:17.431 : :Chapter 03
00:12:53.355 : :Chapter 04
00:14:00.256 : :Chapter 05
00:16:10.469 : :Chapter 06
00:17:36.680 : :Chapter 07
00:22:55.791 : :Chapter 08
00:27:22.891 : :Chapter 09
00:28:51.229 : :Chapter 10
00:30:54.852 : :Chapter 11
00:34:00.371 : :Chapter 12
00:36:03.494 : :Chapter 13
00:39:06.927 : :Chapter 14
00:41:55.095 : :Chapter 15
00:43:27.980 : :Chapter 16
00:47:05.739 : :Chapter 17
00:48:22.357 : :Chapter 18
00:51:04.060 : :Chapter 19
00:52:33.859 : :Chapter 20
00:54:01.154 : :Chapter 21
00:54:45.699 : :Chapter 22
00:57:30.864 : :Chapter 23
00:59:00.161 : :Chapter 24
01:02:48.181 : :Chapter 25
01:03:27.386 : :Chapter 26
01:09:57.735 : :Chapter 27
01:10:37.274 : :Chapter 28
01:12:35.726 : :Chapter 29
01:13:39.498 : :Chapter 30
01:15:35.489 : :Chapter 31
01:16:59.072 : :Chapter 32
01:17:37.110 : :Chapter 33
01:19:48.200 : :Chapter 34
01:23:16.783 : :Chapter 35
01:24:38.656 : :Chapter 36
01:33:27.601 : :Chapter 37
01:34:11.979 : :Chapter 38
x264 [info]: frame I:1365 Avg QP:13.49 size:180624
x264 [info]: frame P:40820 Avg QP:16.38 size: 52596
x264 [info]: frame B:93332 Avg QP:18.40 size: 16408



   Похожие торренты   Торрент   Размер 
В этой теме нет новых непрочитанных сообщений. Храбрая сердцем / Brave (2012) BDRip 1080p | НТВ+

200 | 9

7.18 ГБ

В этой теме нет новых непрочитанных сообщений. Храбрая сердцем / Brave (2012) BDRip 1080p | 3D-Video

81 | 10

5.46 ГБ

В этой теме нет новых непрочитанных сообщений. Храбрая сердцем / Brave (2012) BDRip 1080p от NOLIMITS-TEAM

18 | 50

4.37 ГБ

В этой теме нет новых непрочитанных сообщений. Храбрая сердцем / Brave (2012) BDRip 1080p от HQ-ViDEO | Лицензия

245 | 9

6.57 ГБ

В этой теме нет новых непрочитанных сообщений. Храбрая сердцем в 3Д / Brave 3D (2012) BDRip 1080p от Youtracker | 3D-Video

64 | 12

8.9 ГБ

В этой теме нет новых непрочитанных сообщений. Храбрая сердцем / Brave (2012) BDRip 1080p от Leonardo and Scarabey | Лицензия

773 | 66

4.34 ГБ

В этой теме нет новых непрочитанных сообщений. Храбрая сердцем / Brave (2012) HDRip 1080p | тизер

35 | 2

21.42 МБ




Вы не можете начинать темы
Вы не можете отвечать на сообщения
Вы не можете редактировать свои сообщения
Вы не можете удалять свои сообщения
Вы не можете добавлять вложения

Перейти:  
Для Мосгорсуда, Роскомнадзора и рекламодателей: mosgorsud-torrent[собачка]yandex.ru
Настройки
ppkBB3cker v.2 © 2008-2014 @ PPK
[ Time : 0.017s | 15 Queries | GZIP : Off ]
CGP [Extreme] output time : 0.00013s | 0 Queries | GZIP : Off

Торрент трекер RUTOR.IN, Не можете зайти на rutor.org? Какой новый адрес рутор? Какое зеркало рутор? Не работает rutor.org и зеркала? Тогда наш торрент специально для вас. Rutor.in неофициальное зеркало rutor. В случае если у Вас заблокирован rutor или вдруг Вы не можете на него зайти, то Вы без труда сможете скачать бесплатно и без рекламы последние новинки кино, игр, сериалов и прочего у нас, на Rutor.in. Не нужно использовать прокси, чтобы зайти на рутор, достаточно воспользоваться нашим ресурсом. Все новые фильмы, игры, сериалы, книги и музыка за 2013 и 2014 годы через торрент бесплатно. Скачивайте фильмы в хорошем качестве, игры для пк, xbox, playstation без регистрации. У нас вы найдете новые Зарубежные сериалы и Русские сериалы 2013, 2014, 2015 годов. Оставайтесь с нами, качайте любимые фильмы, игры, сериалы, книги и музыку.