img image001 image001 image001 image001 image001 image001 image001 image001 image001 image001 image001 image001 image001 image001 image001

Planets Sun Sun Sun
Статистика раздачи
Автор: Снежана | Размер: 364.95 МБ | Добавлен: 27 июл 2013
Раздают: 0    Качают: 2
Скачать торрент
Скачать торрент
Описание торрента

СообщениеДобавлено: 27 июл 2013 

#77

Информация о фильме
Название: Симпсоны
Оригинальное название: The Simpsons
Год выхода: 2012
Жанр: Мультсериал, комедия, семейный
Режиссер: Марк Керклэнд, Джефф Линч, Сьюзи Диттер
В ролях: Дэн Кастелланета, Джули Кавнер, Нэнси Картрайт, Ярдли Смит, Гарри Ширер, Хэнк Азария, Памела Хейден, Тресс МакНилл, Карл Видерготт, Мэгги Росвэл

О фильме:
Мультфильм — пародия на американский уклад жизни. Cемейство Симпсонов состоит из пяти членов: папаша Гомер, мать семейства Мардж, их дочери Лиза и Мэгги и несносный подросток Барт.



Страна: США
Продолжительность: 00:21:22
Перевод: Любительский (многоголосый) - Nice-Media

Файл
Кодек: XviD
Качество: HDTVRip
Видео: 1280x720, 23.976 fps, 2246 Kbps
Звук: MP3, 2 ch, 44.1 KHz, 128 Kbps

General
Complete name : F:Загрузки µTorrentThe Simpsons Сезон 24 Серия 04 (Nice-Media).avi
Format : AVI
Format/Info : Audio Video Interleave
File size : 365 MiB
Duration : 21mn 23s
Overall bit rate : 2 386 Kbps
Writing application : MEncoder SVN-r29352(20090610-gcc4.3.3)
Writing library : MPlayer

Video
ID : 0
Format : MPEG-4 Visual
Format profile : Advanced Simple@L5
Format settings, BVOP : 2
Format settings, QPel : No
Format settings, GMC : No warppoints
Format settings, Matrix : Default (H.263)
Codec ID : XVID
Codec ID/Hint : XviD
Duration : 21mn 22s
Bit rate : 2 246 Kbps
Width : 1 280 pixels
Height : 720 pixels
Display aspect ratio : 16:9
Frame rate : 23.976 fps
Color space : YUV
Chroma subsampling : 4:2:0
Bit depth : 8 bits
Scan type : Progressive
Compression mode : Lossy
Bits/(Pixel*Frame) : 0.102
Stream size : 344 MiB (94%)
Writing library : XviD 1.2.1 (UTC 2008-12-04)

Audio
ID : 1
Format : MPEG Audio
Format version : Version 1
Format profile : Layer 3
Mode : Joint stereo
Mode extension : MS Stereo
Codec ID : 55
Codec ID/Hint : MP3
Duration : 21mn 23s
Bit rate mode : Constant
Bit rate : 128 Kbps
Channel(s) : 2 channels
Sampling rate : 44.1 KHz
Compression mode : Lossy
Delay relative to video : 42ms
Stream size : 19.6 MiB (5%)
Alignment : Aligned on interleaves
Interleave, duration : 26 ms (0.63 video frame)
Interleave, preload duration : 522 ms




   Похожие торренты   Торрент   Размер 
В этой теме нет новых непрочитанных сообщений. Симпсоны / The Simpsons [S23] (2011-2012) HDTVRip

16 | 5

3.82 ГБ

В этой теме нет новых непрочитанных сообщений. Симпсоны / The Simpsons [24х02] (2012) HDTVRip 720p

4 | 2

458.05 МБ

В этой теме нет новых непрочитанных сообщений. Симпсоны / The Simpsons [24x03] (2012) HDTVRip 720p

0 | 2

371.54 МБ

В этой теме нет новых непрочитанных сообщений. Симпсоны / The Simpsons [24x08] (2012) HDTVRip | КетчупТВ

0 | 3

207.73 МБ

В этой теме нет новых непрочитанных сообщений. Симпсоны / The Simpsons [24x01] (2012) HDTVRip 720p

2 | 2

436.8 МБ

В этой теме нет новых непрочитанных сообщений. Симпсоны / The Simpsons [24х06] (2012) HDTVRip 720p

0 | 2

406.83 МБ

В этой теме нет новых непрочитанных сообщений. Симпсоны / The Simpsons [24х05] (2012) HDTVRip 720p

0 | 2

368.39 МБ




Вы не можете начинать темы
Вы не можете отвечать на сообщения
Вы не можете редактировать свои сообщения
Вы не можете удалять свои сообщения
Вы не можете добавлять вложения

Перейти:  
Для Мосгорсуда, Роскомнадзора и рекламодателей: mosgorsud-torrent[собачка]yandex.ru
 Вход
ppkBB3cker v.2 © 2008-2014 @ PPK
[ Time : 0.018s | 15 Queries | GZIP : Off ]

Торрент трекер RUTOR.IN, Не можете зайти на rutor.org? Какой новый адрес рутор? Какое зеркало рутор? Не работает rutor.org и зеркала? Тогда наш торрент специально для вас. Rutor.in неофициальное зеркало rutor. В случае если у Вас заблокирован rutor или вдруг Вы не можете на него зайти, то Вы без труда сможете скачать бесплатно и без рекламы последние новинки кино, игр, сериалов и прочего у нас, на Rutor.in. Не нужно использовать прокси, чтобы зайти на рутор, достаточно воспользоваться нашим ресурсом. Все новые фильмы, игры, сериалы, книги и музыка за 2013 и 2014 годы через торрент бесплатно. Скачивайте фильмы в хорошем качестве, игры для пк, xbox, playstation без регистрации. У нас вы найдете новые Зарубежные сериалы и Русские сериалы 2013, 2014, 2015 годов. Оставайтесь с нами, качайте любимые фильмы, игры, сериалы, книги и музыку.
cron