img image001 image001 image001 image001 image001 image001 image001 image001 image001 image001 image001 image001 image001 image001 image001

Planets Sun Sun Sun
Статистика раздачи
Автор: Снежана | Размер: 4.36 ГБ | Добавлен: 27 июл 2013
Раздают: 168    Качают: 6
Скачать торрент
Скачать торрент
Описание торрента

СообщениеДобавлено: 27 июл 2013 

#77

Информация о фильме
Название: В поисках Немо
Оригинальное название: Finding Nemo
Год выхода: 2003
Жанр: мультфильм, комедия, приключения, семейный
Режиссер: Эндрю Стэнтон, Ли Анкрич
В ролях: Альберт Брукс, Эллен ДеДженерес, Александр Гулд, Уиллем Дефо, Эллисон Дженни, Джо Рэнфт, Джеффри Раш, Элизабет Перкинс, Эрик Бана, Эндрю Стэнтон

О фильме:
Среди прекрасных тропических морских стихий, в районе Большого барьерного рифа в уединении живет рыба-клоун по имени Марлин. Он растит своего единственного сыночка Немо. Океан и существующие в нем опасности очень страшат Марлина, и он как может ограждает сына от них, но молодой Немо, страдающий излишним любопытством, очень хочет разузнать побольше о таинственном рифе, рядом с которым они живут.

Когда Немо по иронии судьбы оказывается вдалеке от дома, да и еще сталкивается с угрозой стать обедом рыбы-танка, Марлин отправляется на поиски сына. Но Марлин, конечно же, понимает, что героический спасатель из него не получится и просит о помощи в поисках, Дори, королевскую синюю рыбу, которая хоть и страдает от того, что почти ничего не помнит, но добрее ее не отыскать во всем безбрежном океане!

Итак, наши герои отправляются в путешествие, в котором их подкарауливают многочисленные трудности и опасности…



Страна: Австралия, США
Студия: Walt Disney Pictures
Продолжительность: 01:40:54
Перевод: Профессиональный дублированный (Рус, Укр)

Файл
Кодек: h.264
Качество: BDRip 720p
Видео: 1280x720, 4903 Kbps, 23.976 fps, 0.222 Bits/(Pixel*Frame)
Audio#1: AC3, 640 Kbps, 6 channels, Rus
Audio#2: AC3, 640 Kbps, 6 channels, Ukr

Format : Matroska
Format version : Version 2
File size : 4.36 GiB
Duration : 1h 40mn
Overall bit rate : 6 185 Kbps
Encoded date : UTC 2012-11-18 15:15:17
Writing application : mkvmerge v5.6.0 ('Kenya Kane') built on May 27 2012 16:44:04
Writing library : libebml v1.2.3 + libmatroska v1.3.0

Video
ID : 1
Format : AVC
Format/Info : Advanced Video Codec
Format profile : High@L4.1
Format settings, CABAC : Yes
Format settings, ReFrames : 6 frames
Codec ID : V_MPEG4/ISO/AVC
Duration : 1h 40mn
Bit rate : 4 903 Kbps
Width : 1 280 pixels
Height : 720 pixels
Display aspect ratio : 16:9
Frame rate : 23.976 fps
Color space : YUV
Chroma subsampling : 4:2:0
Bit depth : 8 bits
Scan type : Progressive
Bits/(Pixel*Frame) : 0.222
Stream size : 3.37 GiB (77%)
Writing library : x264 core 124 r2197 69a0443
Encoding settings : cabac=1 / ref=6 / deblock=1:0:0 / analyse=0x3:0x133 / me=umh / subme=10 / psy=1 / psy_rd=1.00:0.00 / mixed_ref=1 / me_range=32 / chroma_me=1 / trellis=2 / 8x8dct=1 / cqm=0 / deadzone=21,11 / fast_pskip=0 / chroma_qp_offset=-2 / threads=9 / sliced_threads=0 / nr=0 / decimate=1 / interlaced=0 / bluray_compat=0 / constrained_intra=0 / bframes=8 / b_pyramid=2 / b_adapt=2 / b_bias=0 / direct=3 / weightb=1 / open_gop=0 / weightp=2 / keyint=240 / keyint_min=23 / scenecut=40 / intra_refresh=0 / rc_lookahead=60 / rc=2pass / mbtree=1 / bitrate=4903 / ratetol=1.0 / qcomp=0.60 / qpmin=0 / qpmax=69 / qpstep=4 / cplxblur=20.0 / qblur=0.5 / ip_ratio=1.40 / aq=1:1.00
Language : English
Default : Yes
Forced : No

Audio #1
ID : 2
Format : AC-3
Format/Info : Audio Coding 3
Mode extension : CM (complete main)
Format settings, Endianness : Big
Codec ID : A_AC3
Duration : 1h 40mn
Bit rate mode : Constant
Bit rate : 640 Kbps
Channel(s) : 6 channels
Channel positions : Front: L C R, Side: L R, LFE
Sampling rate : 48.0 KHz
Bit depth : 16 bits
Compression mode : Lossy
Stream size : 462 MiB (10%)
Language : Russian
Default : Yes
Forced : No

Audio #2
ID : 3
Format : AC-3
Format/Info : Audio Coding 3
Mode extension : CM (complete main)
Format settings, Endianness : Big
Codec ID : A_AC3
Duration : 1h 40mn
Bit rate mode : Constant
Bit rate : 640 Kbps
Channel(s) : 6 channels
Channel positions : Front: L C R, Side: L R, LFE
Sampling rate : 48.0 KHz
Bit depth : 16 bits
Compression mode : Lossy
Stream size : 462 MiB (10%)
Language : Ukrainian
Default : No
Forced : No





   Похожие торренты   Торрент   Размер 
В этой теме нет новых непрочитанных сообщений. В поисках Немо / Finding Nemo (2003) BDRip 720p | D, P, A

12 | 22

5.77 ГБ

В этой теме нет новых непрочитанных сообщений. В поисках Немо / Finding Nemo (2003) BDRip 720p от HQ-ViDEO

16 | 5

6.22 ГБ

В этой теме нет новых непрочитанных сообщений. В Поисках Немо / Finding Nemo (2003) BDRip-720p | Дополнительные материалы

5 | 5

1.85 ГБ

В этой теме нет новых непрочитанных сообщений. В поисках Немо / Finding Nemo (2003) BDRip 720p от Leonardo and Scarabey | Лицензия

389 | 35

3.88 ГБ

В этой теме нет новых непрочитанных сообщений. В поисках Немо / Finding Nemo (2003) BDRip

2223 | 103

1.45 ГБ

В этой теме нет новых непрочитанных сообщений. В поисках Немо / Finding Nemo (2003) BDRip-AVC (PROPER)

182 | 8

1.45 ГБ

В этой теме нет новых непрочитанных сообщений. В поисках Немо / Finding Nemo (2003) BDRip-AVC от R.G. HD-Films | 60 fps

339 | 16

3.97 ГБ




Вы не можете начинать темы
Вы не можете отвечать на сообщения
Вы не можете редактировать свои сообщения
Вы не можете удалять свои сообщения
Вы не можете добавлять вложения

Перейти:  
Для Мосгорсуда, Роскомнадзора и рекламодателей: mosgorsud-torrent[собачка]yandex.ru
 Вход
ppkBB3cker v.2 © 2008-2014 @ PPK
[ Time : 0.024s | 14 Queries | GZIP : Off ]

Торрент трекер RUTOR.IN, Не можете зайти на rutor.org? Какой новый адрес рутор? Какое зеркало рутор? Не работает rutor.org и зеркала? Тогда наш торрент специально для вас. Rutor.in неофициальное зеркало rutor. В случае если у Вас заблокирован rutor или вдруг Вы не можете на него зайти, то Вы без труда сможете скачать бесплатно и без рекламы последние новинки кино, игр, сериалов и прочего у нас, на Rutor.in. Не нужно использовать прокси, чтобы зайти на рутор, достаточно воспользоваться нашим ресурсом. Все новые фильмы, игры, сериалы, книги и музыка за 2013 и 2014 годы через торрент бесплатно. Скачивайте фильмы в хорошем качестве, игры для пк, xbox, playstation без регистрации. У нас вы найдете новые Зарубежные сериалы и Русские сериалы 2013, 2014, 2015 годов. Оставайтесь с нами, качайте любимые фильмы, игры, сериалы, книги и музыку.