img image001 image001 image001 image001 image001 image001 image001 image001 image001 image001 image001 image001 image001 image001 image001

Planets Sun Sun Sun
Статистика раздачи
Автор: Снежана | Размер: 1.47 ГБ | Добавлен: 27 июл 2013
Раздают: 76    Качают: 3
Скачать торрент
Скачать торрент
Описание торрента

СообщениеДобавлено: 27 июл 2013 

#77
Год выпуска: 2009
Страна: Украина
Студия: «Ялта-Фильм Анимейшен»
Жанр: мультфильм, комедия, семейный, военный
Продолжительность: 1:14:01

Перевод: не требуется
Субтитры: нет
Оригинальная аудиодорожка: русский

Режиссер: Ринат Газизов / Rinat Gazizov, Манук Депоян / Manuk Depoyan

В ролях: Александр Игнатуша (Бравый солдат Швейк), Александр Завальский (Поручик Лукаш), Влад Заднепровский (Фельдкурат Отто Кац), Давид Бабаев (Подпоручик Дуб), Владислав Пупков (Рассказчик)...

Описание: Йозефа Швейка, чешского торговца собаками, которого уже дисквалифицировали из армии как форменного идиота, снова призывают на службу в качестве пушечного мяса во время Первой мировой войны. Ему докучали бюрократы, полицейские, доктора и духовенство, его «продавали» от одного офицера другому, но добродушный, болтливый и бесхитростный солдат Швейк все же неохотно приближается к линии фронта и, очевидно, к верной смерти…





Исходник: DVD5 R5
Тип релиза: DVDRip
Контейнер: AVI

Видео: 720x384 (1,875:1), 25 fps, XviD ~ 2508 kbps avg, 0.363 bit/pixel
Аудио: 48 kHz, AC3, 2 ch, 320.00 kbps

Раздача от:
Общее
Полное имя : Pohozhdenija.bravogo.soldata.Shvejka.2009.DVDRip_[Youtracker]_by_AVP Studio.avi
Формат : AVI
Формат/Информация : Audio Video Interleave
Размер файла : 1,47 Гбайт
Продолжительность : 1 ч. 14 м.
Общий поток : 2838 Кбит/сек
Название фильма : Похождения бравого солдата Швейка
Режиссёр : Д.И.С.
Жанр : комедия, военный
Программа кодирования : VirtualDubModRus 1.5.10.2 (build 2542/release)
Библиотека кодирования : VirtualDubMod build 2542/release
Формат оригинала/Имя : мультфильм
Правообладатель : www.tfile.me

Видео
Идентификатор : 0
Формат : MPEG-4 Visual
Профиль формата : Advanced Simple@L5
Параметр BVOP формата : 2
Параметр QPel формата : Нет
Параметр GMC формата : Без точки перехода
Параметр матрицы формата : Default (MPEG)
Режим смешивания : Сжатый битовый поток
Идентификатор кодека : XVID
Идентификатор кодека/Подсказка : XviD
Продолжительность : 1 ч. 14 м.
Битрейт : 2508 Кбит/сек
Ширина : 720 пикселей
Высота : 384 пикселя
Соотношение сторон : 1,875
Частота кадров : 25,000 кадров/сек
Цветовое пространство : YUV
Субдискретизация насыщенности : 4:2:0
Битовая глубина : 8 бит
Тип развёртки : Прогрессивная
Метод сжатия : С потерями
Бит/(Пиксели*Кадры) : 0.363
Размер потока : 1,30 Гбайт (88%)
Библиотека кодирования : XviD 64

Аудио
Идентификатор : 1
Формат : AC-3
Формат/Информация : Audio Coding 3
Расширение режима : CM (complete main)
Идентификатор кодека : 2000
Продолжительность : 1 ч. 14 м.
Вид битрейта : Постоянный
Битрейт : 320 Кбит/сек
Каналы : 2 канала
Расположение каналов : Front: L R
Частота : 48,0 КГц
Битовая глубина : 16 бит
Метод сжатия : С потерями
Размер потока : 169 Мбайт (11%)
Выравнивание : Разделение по промежуткам
Продолжительность промежутка : 40 мс. (1,00 видеокадр)
Время предзагрузки промежутка : 500 мс





   Похожие торренты   Торрент   Размер 
В этой теме нет новых непрочитанных сообщений. Похождения бравого солдата Швейка (2009) DVDRip-AVC от Youtracker

8 | 2

1.46 ГБ

В этой теме нет новых непрочитанных сообщений. Похождения бравого солдата Швейка (2009) DVD5 от Youtracker

12 | 8

3.92 ГБ

В этой теме нет новых непрочитанных сообщений. Ярослав Гашек - Похождения бравого солдата Швейка (2009) MP3

103 | 13

1.55 ГБ

В этой теме нет новых непрочитанных сообщений. Похождения бравого солдата Швейка (2008) DVDRip

1 | 3

743.95 МБ

В этой теме нет новых непрочитанных сообщений. Похождения бравого солдата Швейка (2011) DVDRip

265 | 9

1.37 ГБ

В этой теме нет новых непрочитанных сообщений. Похождения бравого солдата Швейка / Die Abenteuer des braven Soldaten Schwejk [S01] (1972) DVDRip | Р

139 | 102

11.67 ГБ

В этой теме нет новых непрочитанных сообщений. Ярослав Гашек - Похождения бравого солдата Швейка (2012) MP3

133 | 11

1.34 ГБ




Вы не можете начинать темы
Вы не можете отвечать на сообщения
Вы не можете редактировать свои сообщения
Вы не можете удалять свои сообщения
Вы не можете добавлять вложения

Перейти:  
Для Мосгорсуда, Роскомнадзора и рекламодателей: mosgorsud-torrent[собачка]yandex.ru
 Вход
ppkBB3cker v.2 © 2008-2014 @ PPK
[ Time : 0.028s | 14 Queries | GZIP : Off ]

Торрент трекер RUTOR.IN, Не можете зайти на rutor.org? Какой новый адрес рутор? Какое зеркало рутор? Не работает rutor.org и зеркала? Тогда наш торрент специально для вас. Rutor.in неофициальное зеркало rutor. В случае если у Вас заблокирован rutor или вдруг Вы не можете на него зайти, то Вы без труда сможете скачать бесплатно и без рекламы последние новинки кино, игр, сериалов и прочего у нас, на Rutor.in. Не нужно использовать прокси, чтобы зайти на рутор, достаточно воспользоваться нашим ресурсом. Все новые фильмы, игры, сериалы, книги и музыка за 2013 и 2014 годы через торрент бесплатно. Скачивайте фильмы в хорошем качестве, игры для пк, xbox, playstation без регистрации. У нас вы найдете новые Зарубежные сериалы и Русские сериалы 2013, 2014, 2015 годов. Оставайтесь с нами, качайте любимые фильмы, игры, сериалы, книги и музыку.