img image001 image001 image001 image001 image001 image001 image001 image001 image001 image001 image001 image001 image001 image001 image001

Planets Sun Sun Sun
Статистика раздачи
Автор: Снежана | Размер: 949 МБ | Добавлен: 27 июл 2013
Раздают: 157    Качают: 8
Скачать торрент
Скачать торрент
Описание торрента

СообщениеДобавлено: 27 июл 2013 

#77
Год выпуска: 2008-2011
Страна: США
Студия: Pixar Animation Studios
Жанр: мультфильм, короткометражка, фэнтези, комедия, семейный
Продолжительность: 01:11:45

Перевод: Профессиональный (дублированный)
Субтитры: нет
Оригинальная аудиодорожка: нет

Режиссер: Энрико Касароса / Enrico Casarosa, Тедди Ньютон / Teddy Newton, Даг Свитлэнд / Doug Sweetland...

Описание: Дисней и Пиксар представляют потрясающую, новую коллекцию из 12 короткометражных анимационных фильмов, среди которых наминанты на премию Оскар. А так же ранее не издававшиеся дополнительные материалы, из которых вы узнаете как начиналась мультипликационная карьера создателей фильмов студии Пиксар. Вы увидите: Твой друг крыса, Престо, Берн-И, Переменная облачность, Даг: специальная миссия, Джордж и Эй-Джейн, День и ночь, История игрушек: Гавайские каникулы, История игрушек: Самозванец, Мультачки: Аэро-Метр, Мультачки: Метр-машина времени, Луна.





Исходник: DVD9 R5
Тип релиза: DVDRip
Контейнер: AVI

Видео: 720x400 (1,800:1), 25 fps, XviD ~ 1390 kbps avg, 0.193 bit/pixel
Аудио: 48 kHz, AC3, 6 ch, 384.00 kbps

Раздача от:
Общее
Полное имя : E:Tracker2012ПиксарPiksar.Tom.2.DVDRip11.Mul'tachki.Metr-mashina.vremeni.2011.avi
Формат : AVI
Формат/Информация : Audio Video Interleave
Размер файла : 78,3 Мбайт
Продолжительность : 6 м. 7 с.
Общий поток : 1784 Кбит/сек
Программа кодирования : VirtualDubMod 1.5.10.3 | www.virtualdub-fr.org || (build 2550/release)
Библиотека кодирования : VirtualDubMod build 2550/release

Видео
Идентификатор : 0
Формат : MPEG-4 Visual
Профиль формата : Advanced Simple@L5
Параметр BVOP формата : 1
Параметр QPel формата : Нет
Параметр GMC формата : Без точки перехода
Параметр матрицы формата : Выборочная
Идентификатор кодека : XVID
Идентификатор кодека/Подсказка : XviD
Продолжительность : 6 м. 7 с.
Битрейт : 1390 Кбит/сек
Ширина : 720 пикселей
Высота : 400 пикселей
Соотношение сторон : 16:9
Частота кадров : 25,000 кадров/сек
Цветовое пространство : YUV
Субдискретизация насыщенности : 4:2:0
Битовая глубина : 8 бит
Тип развёртки : Прогрессивная
Метод сжатия : С потерями
Бит/(Пиксели*Кадры) : 0.193
Размер потока : 61,0 Мбайт (78%)
Библиотека кодирования : XviD 65

Аудио
Идентификатор : 1
Формат : AC-3
Формат/Информация : Audio Coding 3
Расширение режима : CM (complete main)
Идентификатор кодека : 2000
Продолжительность : 6 м. 7 с.
Вид битрейта : Постоянный
Битрейт : 384 Кбит/сек
Каналы : 6 каналов
Расположение каналов : Front: L C R, Side: L R, LFE
Частота : 48,0 КГц
Битовая глубина : 16 бит
Метод сжатия : С потерями
Размер потока : 16,8 Мбайт (22%)
Выравнивание : Разделение по промежуткам
Продолжительность промежутка : 40 мс. (1,00 видеокадр)
Время предзагрузки промежутка : 500 мс





   Похожие торренты   Торрент   Размер 
В этой теме нет новых непрочитанных сообщений. Пиксар: Коллекция короткометражных мультфильмов Том 2 / Pixar shorts vol 2 (2008-2011) DVDRip-AVC от Youtracker | D

541 | 17

1.49 ГБ

В этой теме нет новых непрочитанных сообщений. Пиксар: Коллекция короткометражных мультфильмов Том 2 / Pixar shorts vol 2 (2008-2011) DVD9 от Youtracker | D | лицензия

9 | 34

6.38 ГБ

В этой теме нет новых непрочитанных сообщений. Пиксар: Коллекция короткометражных мультфильмов Том 2 / Pixar shorts vol 2 (2008-2011) Blu-ray 1080p от Youtracker и HDCLUB | лицензия

34 | 5

26.17 ГБ

В этой теме нет новых непрочитанных сообщений. Пиксар: Коллекция короткометражных мультфильмов Том 1 / Pixar shorts vol 1 (1984-2007) HDRip от Youtracker | D

222 | 10

751.02 МБ

В этой теме нет новых непрочитанных сообщений. Пиксар: Коллекция короткометражных мультфильмов Том 1 / Pixar shorts vol 1 (1984-2007) HDRip-AVC от Youtracker | D

58 | 6

1.1 ГБ

В этой теме нет новых непрочитанных сообщений. Пиксар: Коллекция короткометражных мультфильмов Том 1 / Pixar shorts vol 1 (1984-2007) DVD9 от Youtracker | D | лицензия

39 | 6

4.82 ГБ

В этой теме нет новых непрочитанных сообщений. Коллекция короткометражных мультфильмов Pixar: Том 1-2 / Pixar Short Films Collection: vol 1-2 (1984-2012) BDRip 1080p

97 | 27

7.37 ГБ




Вы не можете начинать темы
Вы не можете отвечать на сообщения
Вы не можете редактировать свои сообщения
Вы не можете удалять свои сообщения
Вы не можете добавлять вложения

Перейти:  
Для Мосгорсуда, Роскомнадзора и рекламодателей: mosgorsud-torrent[собачка]yandex.ru
 Вход
ppkBB3cker v.2 © 2008-2014 @ PPK
[ Time : 0.064s | 14 Queries | GZIP : Off ]

Торрент трекер RUTOR.IN, Не можете зайти на rutor.org? Какой новый адрес рутор? Какое зеркало рутор? Не работает rutor.org и зеркала? Тогда наш торрент специально для вас. Rutor.in неофициальное зеркало rutor. В случае если у Вас заблокирован rutor или вдруг Вы не можете на него зайти, то Вы без труда сможете скачать бесплатно и без рекламы последние новинки кино, игр, сериалов и прочего у нас, на Rutor.in. Не нужно использовать прокси, чтобы зайти на рутор, достаточно воспользоваться нашим ресурсом. Все новые фильмы, игры, сериалы, книги и музыка за 2013 и 2014 годы через торрент бесплатно. Скачивайте фильмы в хорошем качестве, игры для пк, xbox, playstation без регистрации. У нас вы найдете новые Зарубежные сериалы и Русские сериалы 2013, 2014, 2015 годов. Оставайтесь с нами, качайте любимые фильмы, игры, сериалы, книги и музыку.