img image001 image001 image001 image001 image001 image001 image001 image001 image001 image001 image001 image001 image001 image001 image001

Planets Sun Sun Sun
Статистика раздачи
Автор: Снежана | Размер: 699.75 МБ | Добавлен: 27 июл 2013
Раздают: 60    Качают: 11
Скачать торрент
Скачать торрент
Описание торрента

СообщениеДобавлено: 27 июл 2013 

#77

Информация о фильме
Название: Турнир Долины Фей
Оригинальное название: Pixie Hollow Games
Год выпуска: 2011
Жанр: короткометражный, мультфильм, фэнтези, приключения
Режиссер: Брэдли Рэймонд
Роли озвучивали: Люси Лью, Мэй Уитман, Анжелика Хьюстон, Бренда Сонг, Памела Адлон, Рэйвен, Дэн Кертис Ли, Зендая Коулман, Меган Хилти, Роб Полсен, Джефф Беннетт, Джейсон Долли, Джейн Хоррокс, Кэри Уолгрен, Тиффани Торнтон...



О фильме:
Динь-Динь и её друзья собираются со всех уголков Нетландии, чтобы принять участие в Турнире Долины Фей - невероятных Олимпийских играх. Турнир обещает стать ярким зрелищем с фантастическими спортивными состязаниями и веселыми сюрпризами! Садовые Феи Розетта и Хлоя решают сразиться с действующими чемпионами - командой «Шторм». Глиммер и Рамбл принимают их вызов, и начинается самое захватывающее состязание всех времен. Все команды Фей будут стараться проявить себя с лучшей стороны, но победит только одна из них!...



Страна: США
Студия: DisneyToon Studios
Продолжительность: 00:22:34
Перевод: Профессиональный (полное дублирование)







Файл
Качество: BDRip 720
Видео: 1280x720 (16:9), 23.976 fps, 4 139 Kbps (0.187 bit/pixel)
Звук: AC-3, 48.0 KHz, 2 ch, 192 Kbps, CBR

Общее
Уникальный идентификатор : 219994832220809081325112016342600205534 (0xA58176A7D59D67D398D37C11414D44DE)
Полное имя : E:Turnir.Doliny.Fej.BDRip720.Torrent-Xzona.mkv
Формат : Matroska
Версия формата : Version 2
Размер файла : 700 Мбайт
Продолжительность : 22 м.
Общий поток : 4334 Кбит/сек
Дата кодирования : UTC 2012-11-10 23:24:24
Программа кодирования : mkvmerge v5.6.0 ('Kenya Kane') built on May 27 2012 16:44:04
Библиотека кодирования : libebml v1.2.3 + libmatroska v1.3.0

Видео
Идентификатор : 1
Формат : AVC
Формат/Информация : Advanced Video Codec
Профиль формата : High@L4.1
Параметр CABAC формата : Да
Параметр ReFrames формата : 4 кадра
Идентификатор кодека : V_MPEG4/ISO/AVC
Продолжительность : 22 м.
Битрейт : 4139 Кбит/сек
Ширина : 1280 пикселей
Высота : 720 пикселей
Соотношение сторон : 16:9
Режим частоты кадров : Постоянный
Частота кадров : 23,976 кадра/сек
Цветовое пространство : YUV
Субдискретизация насыщенности : 4:2:0
Битовая глубина : 8 бит
Тип развёртки : Прогрессивная
Бит/(Пиксели*Кадры) : 0.187
Размер потока : 655 Мбайт (94%)
Библиотека кодирования : x264 core 125 r2200 999b753
Настройки программы : cabac=1 / ref=3 / deblock=1:-1:-1 / analyse=0x3:0x113 / me=umh / subme=10 / psy=1 / psy_rd=1.00:0.15 / mixed_ref=1 / me_range=16 / chroma_me=1 / trellis=2 / 8x8dct=1 / cqm=0 / deadzone=21,11 / fast_pskip=0 / chroma_qp_offset=-3 / threads=9 / lookahead_threads=1 / sliced_threads=0 / nr=0 / decimate=1 / interlaced=0 / bluray_compat=0 / constrained_intra=0 / bframes=3 / b_pyramid=2 / b_adapt=1 / b_bias=0 / direct=1 / weightb=1 / open_gop=0 / weightp=2 / keyint=240 / keyint_min=23 / scenecut=40 / intra_refresh=0 / rc_lookahead=40 / rc=2pass / mbtree=1 / bitrate=4139 / ratetol=1.0 / qcomp=0.60 / qpmin=0 / qpmax=69 / qpstep=4 / cplxblur=20.0 / qblur=0.5 / ip_ratio=1.40 / aq=1:1.00
Язык : English
Default : Да
Forced : Нет

Аудио
Идентификатор : 2
Формат : AC-3
Формат/Информация : Audio Coding 3
Расширение режима : CM (complete main)
Параметр Endianness формата : Big
Идентификатор кодека : A_AC3
Продолжительность : 22 м.
Вид битрейта : Постоянный
Битрейт : 192 Кбит/сек
Каналы : 2 канала
Расположение каналов : Front: L R
Частота : 48,0 КГц
Битовая глубина : 16 бит
Метод сжатия : С потерями
Размер потока : 31,0 Мбайт (4%)
Язык : Russian
Default : Да
Forced : Нет






Релиз от: &



   Похожие торренты   Торрент   Размер 
В этой теме нет новых непрочитанных сообщений. Турнир Долины Фей / Pixie Hollow Games (2011) BDRip 1080p

630 | 14

1.16 ГБ

В этой теме нет новых непрочитанных сообщений. Турнир Долины Фей / Pixie Hollow Games (2011) BDRip от Stranik 2.0 | D

41 | 5

503.36 МБ

В этой теме нет новых непрочитанных сообщений. Турнир Долины Фей / Tinker Bell and the Pixie Hollow Games (2011) HDTVRip

81 | 10

300.51 МБ

В этой теме нет новых непрочитанных сообщений. Феи. Торт и Спорт / Pixie Hollow. Bake off (2013) BDRip 720 от SuperMin

746 | 55

165.51 МБ

В этой теме нет новых непрочитанных сообщений. Феи. Торт и Спорт / Pixie Hollow. Bake off (2013) BDRip 1080 от SuperMin

775 | 37

279.84 МБ

В этой теме нет новых непрочитанных сообщений. Феи. Торт и Спорт / Pixie Hollow. Bake off (2013) BDRip 1080p от ExKinoRay | D

921 | 34

350.55 МБ

В этой теме нет новых непрочитанных сообщений. Четвертая власть / Die Vierte Macht / The Fourth State (2011) BDRip 720p от Torrent-Xzona | L1

9 | 2

2.17 ГБ




Вы не можете начинать темы
Вы не можете отвечать на сообщения
Вы не можете редактировать свои сообщения
Вы не можете удалять свои сообщения
Вы не можете добавлять вложения

Перейти:  
Для Мосгорсуда, Роскомнадзора и рекламодателей: mosgorsud-torrent[собачка]yandex.ru
 Вход
ppkBB3cker v.2 © 2008-2014 @ PPK
[ Time : 0.087s | 14 Queries | GZIP : Off ]

Торрент трекер RUTOR.IN, Не можете зайти на rutor.org? Какой новый адрес рутор? Какое зеркало рутор? Не работает rutor.org и зеркала? Тогда наш торрент специально для вас. Rutor.in неофициальное зеркало rutor. В случае если у Вас заблокирован rutor или вдруг Вы не можете на него зайти, то Вы без труда сможете скачать бесплатно и без рекламы последние новинки кино, игр, сериалов и прочего у нас, на Rutor.in. Не нужно использовать прокси, чтобы зайти на рутор, достаточно воспользоваться нашим ресурсом. Все новые фильмы, игры, сериалы, книги и музыка за 2013 и 2014 годы через торрент бесплатно. Скачивайте фильмы в хорошем качестве, игры для пк, xbox, playstation без регистрации. У нас вы найдете новые Зарубежные сериалы и Русские сериалы 2013, 2014, 2015 годов. Оставайтесь с нами, качайте любимые фильмы, игры, сериалы, книги и музыку.