img image001 image001 image001 image001 image001 image001 image001 image001 image001 image001 image001 image001 image001 image001 image001

Planets Sun Sun Sun
Статистика раздачи
Автор: Снежана | Размер: 1.49 ГБ | Добавлен: 27 июл 2013
Раздают: 541    Качают: 17
Скачать торрент
Скачать торрент
Описание торрента

СообщениеДобавлено: 27 июл 2013 

#77
Год выпуска: 2008-2011
Страна: США
Студия: Pixar Animation Studios
Жанр: мультфильм, короткометражка, фэнтези, комедия, семейный
Продолжительность: 01:11:45

Перевод: Профессиональный (дублированный)
Субтитры: нет
Оригинальная аудиодорожка: нет

Режиссер: Энрико Касароса / Enrico Casarosa, Тедди Ньютон / Teddy Newton, Даг Свитлэнд / Doug Sweetland...

Описание: Дисней и Пиксар представляют потрясающую, новую коллекцию из 12 короткометражных анимационных фильмов, среди которых наминанты на премию Оскар. А так же ранее не издававшиеся дополнительные материалы, из которых вы узнаете как начиналась мультипликационная карьера создателей фильмов студии Пиксар. Вы увидите: Твой друг крыса, Престо, Берн-И, Переменная облачность, Даг: специальная миссия, Джордж и Эй-Джейн, День и ночь, История игрушек: Гавайские каникулы, История игрушек: Самозванец, Мультачки: Аэро-Метр, Мультачки: Метр-машина времени, Луна.





Исходник: DVD9 R5
Тип релиза: DVDRip-AVC
Контейнер: MKV

Видео: 720x570@1024x570 (16:9), 720x572@1024x572(16:9), 720x568@1024x568 (16:9), 720x428@1024x428 (2,40:1), 25 fps, H264 ~ 2519 kbps avg, 0.246 bit/pixel
Аудио: 48 kHz, AC3, 6 ch, 384.00 kbps

Раздача от:
Общее
Полное имя : Piksar.Tom.2.DVDRip-AVC\07.Den'.i.noch'.2010.mkv
Формат : Matroska
Версия формата : Version 2
Размер файла : 120 Мбайт
Продолжительность : 5 м. 47 с.
Общий поток : 2908 Кбит/сек
Дата кодирования : UTC 2012-11-21 13:49:30
Программа кодирования : mkvmerge v5.0.1 ('Es ist Sommer') built on Nov 6 2011 16:23:40
Библиотека кодирования : libebml v1.2.2 + libmatroska v1.3.0

Видео
Идентификатор : 1
Формат : AVC
Формат/Информация : Advanced Video Codec
Профиль формата : High@L4.1
Параметр CABAC формата : Да
Параметр ReFrames формата : 11 кадров
Параметр GOP формата : M=6, N=12
Идентификатор кодека : V_MPEG4/ISO/AVC
Продолжительность : 5 м. 47 с.
Битрейт : 2519 Кбит/сек
Ширина : 720 пикселей
Высота : 570 пикселей
Соотношение сторон : 16:9
Частота кадров : 25,000 кадров/сек
Цветовое пространство : YUV
Субдискретизация насыщенности : 4:2:0
Битовая глубина : 8 бит
Тип развёртки : Прогрессивная
Бит/(Пиксели*Кадры) : 0.246
Размер потока : 102 Мбайт (85%)
Библиотека кодирования : x264 core 119 r2106 07efeb4
Настройки программы : cabac=1 / ref=11 / deblock=1:-2:-1 / analyse=0x3:0x113 / me=umh / subme=9 / psy=1 / psy_rd=1.00:0.20 / mixed_ref=1 / me_range=32 / chroma_me=1 / trellis=1 / 8x8dct=1 / cqm=0 / deadzone=21,11 / fast_pskip=0 / chroma_qp_offset=-3 / threads=3 / sliced_threads=0 / nr=0 / decimate=0 / interlaced=0 / bluray_compat=0 / constrained_intra=0 / bframes=8 / b_pyramid=2 / b_adapt=2 / b_bias=0 / direct=3 / weightb=1 / open_gop=0 / weightp=2 / keyint=250 / keyint_min=25 / scenecut=40 / intra_refresh=0 / rc_lookahead=60 / rc=2pass / mbtree=1 / bitrate=2519 / ratetol=1.0 / qcomp=0.60 / qpmin=0 / qpmax=69 / qpstep=4 / cplxblur=20.0 / qblur=0.5 / ip_ratio=1.40 / aq=1:1.00
Default : Да
Forced : Нет

Аудио
Идентификатор : 2
Формат : AC-3
Формат/Информация : Audio Coding 3
Расширение режима : CM (complete main)
Идентификатор кодека : A_AC3
Продолжительность : 5 м. 47 с.
Вид битрейта : Постоянный
Битрейт : 384 Кбит/сек
Каналы : 6 каналов
Расположение каналов : Front: L C R, Side: L R, LFE
Частота : 48,0 КГц
Битовая глубина : 16 бит
Метод сжатия : С потерями
Размер потока : 15,9 Мбайт (13%)
Default : Да
Forced : Нет





   Похожие торренты   Торрент   Размер 
В этой теме нет новых непрочитанных сообщений. Пиксар: Коллекция короткометражных мультфильмов Том 2 / Pixar shorts vol 2 (2008-2011) DVDRip от Youtracker | D

157 | 8

949 МБ

В этой теме нет новых непрочитанных сообщений. Пиксар: Коллекция короткометражных мультфильмов Том 2 / Pixar shorts vol 2 (2008-2011) DVD9 от Youtracker | D | лицензия

9 | 34

6.38 ГБ

В этой теме нет новых непрочитанных сообщений. Пиксар: Коллекция короткометражных мультфильмов Том 2 / Pixar shorts vol 2 (2008-2011) Blu-ray 1080p от Youtracker и HDCLUB | лицензия

34 | 5

26.17 ГБ

В этой теме нет новых непрочитанных сообщений. Пиксар: Коллекция короткометражных мультфильмов Том 1 / Pixar shorts vol 1 (1984-2007) HDRip-AVC от Youtracker | D

58 | 6

1.1 ГБ

В этой теме нет новых непрочитанных сообщений. Пиксар: Коллекция короткометражных мультфильмов Том 1 / Pixar shorts vol 1 (1984-2007) HDRip от Youtracker | D

222 | 10

751.02 МБ

В этой теме нет новых непрочитанных сообщений. Пиксар: Коллекция короткометражных мультфильмов Том 1 / Pixar shorts vol 1 (1984-2007) DVD9 от Youtracker | D | лицензия

39 | 6

4.82 ГБ

В этой теме нет новых непрочитанных сообщений. Коллекция короткометражных мультфильмов Pixar: Том 1-2 / Pixar Short Films Collection: vol 1-2 (1984-2012) BDRip 1080p

97 | 27

7.37 ГБ




Вы не можете начинать темы
Вы не можете отвечать на сообщения
Вы не можете редактировать свои сообщения
Вы не можете удалять свои сообщения
Вы не можете добавлять вложения

Перейти:  
Для Мосгорсуда, Роскомнадзора и рекламодателей: mosgorsud-torrent[собачка]yandex.ru
 Вход
ppkBB3cker v.2 © 2008-2014 @ PPK
[ Time : 0.026s | 13 Queries | GZIP : Off ]
CGP output time : 0.668s | 7 Queries | GZIP : Off

Торрент трекер RUTOR.IN, Не можете зайти на rutor.org? Какой новый адрес рутор? Какое зеркало рутор? Не работает rutor.org и зеркала? Тогда наш торрент специально для вас. Rutor.in неофициальное зеркало rutor. В случае если у Вас заблокирован rutor или вдруг Вы не можете на него зайти, то Вы без труда сможете скачать бесплатно и без рекламы последние новинки кино, игр, сериалов и прочего у нас, на Rutor.in. Не нужно использовать прокси, чтобы зайти на рутор, достаточно воспользоваться нашим ресурсом. Все новые фильмы, игры, сериалы, книги и музыка за 2013 и 2014 годы через торрент бесплатно. Скачивайте фильмы в хорошем качестве, игры для пк, xbox, playstation без регистрации. У нас вы найдете новые Зарубежные сериалы и Русские сериалы 2013, 2014, 2015 годов. Оставайтесь с нами, качайте любимые фильмы, игры, сериалы, книги и музыку.