img image001 image001 image001 image001 image001 image001 image001 image001 image001 image001 image001 image001 image001 image001 image001

Planets Sun Sun Sun
Статистика раздачи
Автор: Снежана | Размер: 3.25 ГБ | Добавлен: 27 июл 2013
Раздают: 6    Качают: 2
Скачать торрент
Скачать торрент
Описание торрента

СообщениеДобавлено: 27 июл 2013 

#77

Информация о фильме
Название: Пушистые против Зубастых
Оригинальное название: The Outback
Год выхода: 2012
Жанр: Мультфильм, приключения, семейный
Режиссер: Кюнг Хо Ли
В ролях: Чарли Бьюли, Алан Камминг, Тим Карри, Крис Эджерли, Эрик Лопез, Норм МакДональд, Брэт МакКензи, Нолан Норт, Филип Проктор, Дженни Пулос

О фильме:
Нелегко живется на свете если ты белый, а все остальные — серые. Так и белый коала Джонни страдает от своей особенности. А если ты особенный — то тебе, ясное дело, прямая дорога в цирк! Но любовь публики недолговечна, особенно, если кроме цвета шерсти, тебе нечем похвастаться. Джонни мечтает стать крутым суперегероем и ему представится такой шанс! Для этого всего лишь нужно разогнать стаю кровожадных псов, опрокинуть горы, перебраться через пропасть, перехитрить гигантских змей, приручить тасманского дьявола и победить гигантского крокодила! И что же в награду? Ну, конечно, любовь прекрасной дамы!



Страна: Корея Южная, США
Продолжительность: 01:25:33
Перевод: Дублированный [Лицензия]

Файл
Кодек: AVC
Качество: BDRip 720p
Видео: 1280x692, 23.976 fps, 5000 Kbps
Звук: AC3, 48 kHz, 6 ch, 448 Kbps
Дополнительно: Сохранены оригинальные чаптеры как на Blu-Ray.

General
Unique ID : 230033031349481957321791933576051355148 (0xAD0EC01575164DC6928588E5E7C2EE0C)
Complete name : F:The.Outback.2012.720p.Bluray.Rus.mkv
Format : Matroska
Format version : Version 2
File size : 3.25 GiB
Duration : 1h 25mn
Overall bit rate : 5 447 Kbps
Movie name : HDCLUB present "The Outback (2012)"
Encoded date : UTC 2012-11-26 22:57:01
Writing application : mkvmerge v5.8.0 ('No Sleep / Pillow') built on Sep 2 2012 15:37:04
Writing library : libebml v1.2.3 + libmatroska v1.3.0

Video
ID : 1
Format : AVC
Format/Info : Advanced Video Codec
Format profile : High@L4.1
Format settings, CABAC : Yes
Format settings, ReFrames : 9 frames
Codec ID : V_MPEG4/ISO/AVC
Duration : 1h 25mn
Bit rate : 5 000 Kbps
Width : 1 280 pixels
Height : 692 pixels
Display aspect ratio : 1.850
Frame rate : 23.976 fps
Color space : YUV
Chroma subsampling : 4:2:0
Bit depth : 8 bits
Scan type : Progressive
Bits/(Pixel*Frame) : 0.235
Stream size : 2.92 GiB (90%)
Title : The.Outback.2012.720p.Bluray.Rus.HDCLUB
Writing library : x264 core 129 r2230 1cffe9f
Encoding settings : cabac=1 / ref=9 / deblock=1:-3:-3 / analyse=0x3:0x133 / me=umh / subme=11 / psy=1 / psy_rd=1.00:0.00 / mixed_ref=1 / me_range=32 / chroma_me=1 / trellis=2 / 8x8dct=1 / cqm=0 / deadzone=21,11 / fast_pskip=0 / chroma_qp_offset=-2 / threads=12 / lookahead_threads=2 / sliced_threads=0 / nr=0 / decimate=1 / interlaced=0 / bluray_compat=0 / constrained_intra=0 / bframes=10 / b_pyramid=2 / b_adapt=2 / b_bias=0 / direct=3 / weightb=1 / open_gop=0 / weightp=2 / keyint=250 / keyint_min=23 / scenecut=40 / intra_refresh=0 / rc_lookahead=60 / rc=2pass / mbtree=0 / bitrate=5000 / ratetol=1.0 / qcomp=0.60 / qpmin=0 / qpmax=69 / qpstep=4 / cplxblur=20.0 / qblur=0.5 / vbv_maxrate=50000 / vbv_bufsize=62500 / nal_hrd=none / ip_ratio=1.40 / pb_ratio=1.30 / aq=1:0.80
Language : English
Default : Yes
Forced : Yes

Audio
ID : 2
Format : AC-3
Format/Info : Audio Coding 3
Mode extension : CM (complete main)
Codec ID : A_AC3
Duration : 1h 25mn
Bit rate mode : Constant
Bit rate : 448 Kbps
Channel(s) : 6 channels
Channel positions : Front: L C R, Side: L R, LFE
Sampling rate : 48.0 KHz
Bit depth : 16 bits
Compression mode : Lossy
Stream size : 274 MiB (8%)
Title : DD 5.1 @ 448 kbps - Dubbing, BD RUS
Language : Russian
Default : Yes
Forced : Yes

Menu
00:00:00.000 : en:A Beautiful Neighborhood
00:07:13.850 : en:Welcome to Bravo Company
00:15:35.017 : en:Break Out the Suit
00:23:01.254 : en:Daisy Chain
00:32:05.423 : en:Something in the Trunk
00:39:10.639 : en:Die Comfortable
00:47:37.312 : en:Purgatory
00:55:44.132 : en:No Place for a Picnic
01:02:44.010 : en:Movement on the Tracks
01:11:29.702 : en:Punch for Punch
01:20:03.715 : en:A Standard Mission
01:21:54.784 : en:Body Bomb



Релиз от:



   Похожие торренты   Торрент   Размер 
В этой теме нет новых непрочитанных сообщений. Пушистые против Зубастых / The Outback (2012) BDRip 720p от Leonardo and Scarabey | Лицензия

216 | 77

2.72 ГБ

В этой теме нет новых непрочитанных сообщений. Пушистые против Зубастых / The Outback (2012) BDRip | Лицензия

20 | 5

1.37 ГБ

В этой теме нет новых непрочитанных сообщений. Пушистые против Зубастых / The Outback (2012) BDRip 1080p | Лицензия

18 | 3

5.94 ГБ

В этой теме нет новых непрочитанных сообщений. Пушистые против Зубастых / The Outback (2012) DVD9 R5 от Youtracker | D | лицензия

3 | 2

5.8 ГБ

В этой теме нет новых непрочитанных сообщений. Пушистые против Зубастых / The Outback (2012) HDRip от Youtracker | Лицензия

41 | 4

744.47 МБ

В этой теме нет новых непрочитанных сообщений. Пушистые против Зубастых / The Outback (2012) DVDRip | КПК от Generalfilm | Лицензия

20 | 2

292.9 МБ

В этой теме нет новых непрочитанных сообщений. Пушистые против Зубастых / The Outback (2012) Blu-ray 1080p от Youtracker и HDCLUB | D | лицензия

0 | 2

15.15 ГБ




Вы не можете начинать темы
Вы не можете отвечать на сообщения
Вы не можете редактировать свои сообщения
Вы не можете удалять свои сообщения
Вы не можете добавлять вложения

Перейти:  
Для Мосгорсуда, Роскомнадзора и рекламодателей: mosgorsud-torrent[собачка]yandex.ru
 Вход
ppkBB3cker v.2 © 2008-2014 @ PPK
[ Time : 0.022s | 14 Queries | GZIP : Off ]

Торрент трекер RUTOR.IN, Не можете зайти на rutor.org? Какой новый адрес рутор? Какое зеркало рутор? Не работает rutor.org и зеркала? Тогда наш торрент специально для вас. Rutor.in неофициальное зеркало rutor. В случае если у Вас заблокирован rutor или вдруг Вы не можете на него зайти, то Вы без труда сможете скачать бесплатно и без рекламы последние новинки кино, игр, сериалов и прочего у нас, на Rutor.in. Не нужно использовать прокси, чтобы зайти на рутор, достаточно воспользоваться нашим ресурсом. Все новые фильмы, игры, сериалы, книги и музыка за 2013 и 2014 годы через торрент бесплатно. Скачивайте фильмы в хорошем качестве, игры для пк, xbox, playstation без регистрации. У нас вы найдете новые Зарубежные сериалы и Русские сериалы 2013, 2014, 2015 годов. Оставайтесь с нами, качайте любимые фильмы, игры, сериалы, книги и музыку.