img image001 image001 image001 image001 image001 image001 image001 image001 image001 image001 image001 image001 image001 image001 image001

Planets Sun Sun Sun
Статистика раздачи
Автор: Снежана | Размер: 4.37 ГБ | Добавлен: 27 июл 2013
Раздают: 12    Качают: 3
Скачать торрент
Скачать торрент
Описание торрента

СообщениеДобавлено: 27 июл 2013 

#77

Информация о фильме
Название: Пушистые против Зубастых
Оригинальное название: The Outback
Год выхода: 2012
Жанр: мультфильм, приключения, семейный
Режиссер: Кюнг Хо Ли
В ролях: Чарли Бьюли, Алан Камминг, Тим Карри, Крис Эджерли, Эрик Лопез, Норм МакДональд, Брэт МакКензи, Нолан Норт, Филип Проктор, Дженни Пулос

О фильме: Нелегко живется на свете если ты белый, а все остальные — серые. Так и белый коала Джонни страдает от своей особенности. А если ты особенный — то тебе, ясное дело, прямая дорога в цирк! Но любовь публики недолговечна, особенно, если кроме цвета шерсти, тебе нечем похвастаться. Джонни мечтает стать крутым суперегероем и ему представится такой шанс! Для этого всего лишь нужно разогнать стаю кровожадных псов, опрокинуть горы, перебраться через пропасть, перехитрить гигантских змей, приручить тасманского дьявола и победить гигантского крокодила! И что же в награду? Ну, конечно, любовь прекрасной дамы!



Выпущено: Lotte Entertainment
Продолжительность: 01:25:33
Перевод: Дублированный (лицензия)

Файл
Кодек: x264
Качество: BDRip (источник: Blu-ray Disc)
Видео: 1920x1040 (16:9), 23.976 fps, 6866 kbps
Аудио: AC-3, 6 ch, 448 kbps
Скачать: сэмпл

Скриншоты

Общее
Уникальный идентификатор : 186630734894669495092256885225193370445 (0x8C67C5A789826E0BBAE06D796002734D)
Полное имя : The.Outback.2012.BDRip.1080p.Rus.mkv
Формат : Matroska
Версия формата : Version 2
Размер файла : 4,37 Гбайт
Продолжительность : 1 ч. 25 м.
Общий поток : 7313 Кбит/сек
Название фильма : Пушистые против Зубастых / The Outback (2012)
Дата кодирования : UTC 2012-11-27 11:00:10
Программа кодирования : mkvmerge v5.8.0 ('No Sleep / Pillow') built on Sep 2 2012 15:37:04
Библиотека кодирования : libebml v1.2.3 + libmatroska v1.3.0

Видео
Идентификатор : 1
Формат : AVC
Формат/Информация : Advanced Video Codec
Профиль формата : High@L4.1
Параметр CABAC формата : Да
Параметр ReFrames формата : 4 кадра
Идентификатор кодека : V_MPEG4/ISO/AVC
Продолжительность : 1 ч. 25 м.
Битрейт : 6866 Кбит/сек
Ширина : 1920 пикселей
Высота : 1040 пикселей
Соотношение сторон : 16:9
Частота кадров : 23,976 кадра/сек
Цветовое пространство : YUV
Субдискретизация насыщенности : 4:2:0
Битовая глубина : 8 бит
Тип развёртки : Прогрессивная
Бит/(Пиксели*Кадры) : 0.143
Размер потока : 4,01 Гбайт (92%)
Заголовок : Release by AlexKa
Библиотека кодирования : x264 core 129 r2230 1cffe9f
Настройки программы : cabac=1 / ref=4 / deblock=1:0:0 / analyse=0x3:0x133 / me=umh / subme=10 / psy=1 / psy_rd=1.00:0.00 / mixed_ref=1 / me_range=32 / chroma_me=1 / trellis=2 / 8x8dct=1 / cqm=0 / deadzone=21,11 / fast_pskip=0 / chroma_qp_offset=-2 / threads=12 / lookahead_threads=2 / sliced_threads=0 / nr=0 / decimate=0 / interlaced=0 / bluray_compat=0 / constrained_intra=0 / bframes=5 / b_pyramid=2 / b_adapt=2 / b_bias=0 / direct=3 / weightb=1 / open_gop=0 / weightp=2 / keyint=240 / keyint_min=23 / scenecut=40 / intra_refresh=0 / rc=2pass / mbtree=0 / bitrate=6866 / ratetol=1.0 / qcomp=0.60 / qpmin=0 / qpmax=69 / qpstep=4 / cplxblur=20.0 / qblur=0.5 / ip_ratio=1.40 / pb_ratio=1.30 / aq=1:0.50
Язык : English

Аудио
Идентификатор : 2
Формат : AC-3
Формат/Информация : Audio Coding 3
Расширение режима : CM (complete main)
Идентификатор кодека : A_AC3
Продолжительность : 1 ч. 25 м.
Вид битрейта : Постоянный
Битрейт : 448 Кбит/сек
Каналы : 6 каналов
Расположение каналов : Front: L C R, Side: L R, LFE
Частота : 48,0 КГц
Битовая глубина : 16 бит
Метод сжатия : С потерями
Размер потока : 274 Мбайт (6%)
Заголовок : Rus
Язык : Russian

Меню
00:00:00.000 : :Chapter 01
00:07:13.850 : :Chapter 02
00:15:35.017 : :Chapter 03
00:23:01.254 : :Chapter 04
00:32:05.423 : :Chapter 05
00:39:10.639 : :Chapter 06
00:47:37.312 : :Chapter 07
00:55:44.132 : :Chapter 08
01:02:44.010 : :Chapter 09
01:11:29.702 : :Chapter 10
01:20:03.715 : :Chapter 11
01:21:54.784 : :Chapter 12
01:25:31.751 : :Chapter 13
x264 [info]: frame I:1417 Avg QP:16.05 size:202887
x264 [info]: frame P:35653 Avg QP:19.03 size: 62925
x264 [info]: frame B:85987 Avg QP:20.59 size: 21772



   Похожие торренты   Торрент   Размер 
В этой теме нет новых непрочитанных сообщений. Пушистые против Зубастых / The Outback (2012) BDRip 1080p | Лицензия

18 | 3

5.94 ГБ

В этой теме нет новых непрочитанных сообщений. Пушистые против Зубастых / The Outback (2012) BDRip 1080p | 3D-Video

8 | 2

7.92 ГБ

В этой теме нет новых непрочитанных сообщений. Пушистые против Зубастых / The Outback (2012) Blu-ray 1080p от Youtracker и HDCLUB | D | лицензия

0 | 2

15.15 ГБ

В этой теме нет новых непрочитанных сообщений. Пушистые против Зубастых / The Outback (2012) BDRip-AVC от potroks | D

41 | 5

1.46 ГБ

В этой теме нет новых непрочитанных сообщений. Пушистые против Зубастых / The Outback (2012) BDRip | Лицензия

20 | 5

1.37 ГБ

В этой теме нет новых непрочитанных сообщений. Пушистые против Зубастых / The Outback (2012) BDRip 720p | Лицензия

6 | 2

3.25 ГБ

В этой теме нет новых непрочитанных сообщений. Пушистые против Зубастых / The Outback (2012) BDRip 720p от Leonardo and Scarabey | Лицензия

216 | 77

2.72 ГБ




Вы не можете начинать темы
Вы не можете отвечать на сообщения
Вы не можете редактировать свои сообщения
Вы не можете удалять свои сообщения
Вы не можете добавлять вложения

Перейти:  
Для Мосгорсуда, Роскомнадзора и рекламодателей: mosgorsud-torrent[собачка]yandex.ru
 Вход
ppkBB3cker v.2 © 2008-2014 @ PPK
[ Time : 0.029s | 15 Queries | GZIP : On ]

Торрент трекер RUTOR.IN, Не можете зайти на rutor.org? Какой новый адрес рутор? Какое зеркало рутор? Не работает rutor.org и зеркала? Тогда наш торрент специально для вас. Rutor.in неофициальное зеркало rutor. В случае если у Вас заблокирован rutor или вдруг Вы не можете на него зайти, то Вы без труда сможете скачать бесплатно и без рекламы последние новинки кино, игр, сериалов и прочего у нас, на Rutor.in. Не нужно использовать прокси, чтобы зайти на рутор, достаточно воспользоваться нашим ресурсом. Все новые фильмы, игры, сериалы, книги и музыка за 2013 и 2014 годы через торрент бесплатно. Скачивайте фильмы в хорошем качестве, игры для пк, xbox, playstation без регистрации. У нас вы найдете новые Зарубежные сериалы и Русские сериалы 2013, 2014, 2015 годов. Оставайтесь с нами, качайте любимые фильмы, игры, сериалы, книги и музыку.