img image001 image001 image001 image001 image001 image001 image001 image001 image001 image001 image001 image001 image001 image001 image001

Planets Sun Sun Sun
Статистика раздачи
Автор: Снежана | Размер: 744.47 МБ | Добавлен: 27 июл 2013
Раздают: 41    Качают: 4
Скачать торрент
Скачать торрент
Описание торрента

СообщениеДобавлено: 27 июл 2013 

Пушистые против Зубастых

#77

Страна: Корея Южная, США
Жанр: мультфильм, приключения, семейный
Продолжительность: 01:25:33
Год выпуска: 2012
Перевод: Профессиональный (дублированный) [Лицензия]
Русские субтитры: нет

Режиссёр: Дэвид Лин / David Lean

В ролях: Чарли Бьюли, Алан Камминг, Тим Карри, Крис Эджерли, Эрик Лопез, Норм МакДональд, Брэт МакКензи, Нолан Норт, Филип Проктор, Дженни Пулос...

Описание: Нелегко живется на свете если ты белый, а все остальные — серые. Так и белый коала Джонни страдает от своей особенности. А если ты особенный — то тебе, ясное дело, прямая дорога в цирк! Но любовь публики недолговечна, особенно, если кроме цвета шерсти, тебе нечем похвастаться. Джонни мечтает стать крутым суперегероем и ему представится такой шанс! Для этого всего лишь нужно разогнать стаю кровожадных псов, опрокинуть горы, перебраться через пропасть, перехитрить гигантских змей, приручить тасманского дьявола и победить гигантского крокодила! И что же в награду? Ну, конечно, любовь прекрасной дамы!

Rip By: _Flash



Качество:
HDRip
Формат: AVI
Видео: XviD, 704x384, 23.976 fps, 1079kbps
Аудио: MP3, 2ch, 128kbps, 48.0 KHz

Код:
General
Complete name                            : D:Docum and SettingsAdminРабочий столThe.Outback.2012.HDRip By _Flash.avi
Format                                   : AVI
Format/Info                              : Audio Video Interleave
File size                                : 744 MiB
Duration                                 : 1h 25mn
Overall bit rate                         : 1 217 Kbps
Writing application                      : VirtualDubMod 1.5.10.3 | www.virtualdub-fr.org || (build 2550/release)
Writing library                          : VirtualDubMod build 2550/release

Video
ID                                       : 0
Format                                   : MPEG-4 Visual
Format profile                           : Advanced Simple@L5
Format settings, BVOP                    : 1
Format settings, QPel                    : No
Format settings, GMC                     : No warppoints
Format settings, Matrix                  : Custom
Codec ID                                 : XVID
Codec ID/Hint                            : XviD
Duration                                 : 1h 25mn
Bit rate                                 : 1 079 Kbps
Width                                    : 704 pixels
Height                                   : 384 pixels
Display aspect ratio                     : 1.85:1
Frame rate                               : 23.976 fps
Color space                              : YUV
Chroma subsampling                       : 4:2:0
Bit depth                                : 8 bits
Scan type                                : Progressive
Compression mode                         : Lossy
Bits/(Pixel*Frame)                       : 0.167
Stream size                              : 660 MiB (89%)
Writing library                          : XviD 64

Audio
ID                                       : 1
Format                                   : MPEG Audio
Format version                           : Version 1
Format profile                           : Layer 3
Codec ID                                 : 55
Codec ID/Hint                            : MP3
Duration                                 : 1h 25mn
Bit rate mode                            : Constant
Bit rate                                 : 128 Kbps
Channel(s)                               : 2 channels
Sampling rate                            : 48.0 KHz
Compression mode                         : Lossy
Stream size                              : 78.3 MiB (11%)
Alignment                                : Aligned on interleaves
Interleave, duration                     : 42 ms (1.00 video frame)
Interleave, preload duration             : 504 ms
Writing library                          : L3.99r
Encoding settings                        : -m s -V 4 -q 2 -lowpass 17 -b 128







   Похожие торренты   Торрент   Размер 
В этой теме нет новых непрочитанных сообщений. Пушистые против Зубастых / The Outback (2012) DVD9 R5 от Youtracker | D | лицензия

3 | 2

5.8 ГБ

В этой теме нет новых непрочитанных сообщений. Пушистые против Зубастых / The Outback (2012) Blu-ray 1080p от Youtracker и HDCLUB | D | лицензия

0 | 2

15.15 ГБ

В этой теме нет новых непрочитанных сообщений. Пушистые против Зубастых / The Outback (2012) DVD5 от Youtracker | D | сжатый

3 | 2

4.37 ГБ

В этой теме нет новых непрочитанных сообщений. Пушистые против Зубастых / The Outback (2012) BDRip | Лицензия

20 | 5

1.37 ГБ

В этой теме нет новых непрочитанных сообщений. Пушистые против Зубастых / The Outback (2012) DVDRip | КПК от Generalfilm | Лицензия

20 | 2

292.9 МБ

В этой теме нет новых непрочитанных сообщений. Пушистые против Зубастых / The Outback (2012) BDRip 720p | Лицензия

6 | 2

3.25 ГБ

В этой теме нет новых непрочитанных сообщений. Пушистые против Зубастых / The Outback (2012) BDRip 1080p | Лицензия

18 | 3

5.94 ГБ




Вы не можете начинать темы
Вы не можете отвечать на сообщения
Вы не можете редактировать свои сообщения
Вы не можете удалять свои сообщения
Вы не можете добавлять вложения

Перейти:  
Для Мосгорсуда, Роскомнадзора и рекламодателей: mosgorsud-torrent[собачка]yandex.ru
 Вход
ppkBB3cker v.2 © 2008-2014 @ PPK
[ Time : 0.056s | 14 Queries | GZIP : Off ]

Торрент трекер RUTOR.IN, Не можете зайти на rutor.org? Какой новый адрес рутор? Какое зеркало рутор? Не работает rutor.org и зеркала? Тогда наш торрент специально для вас. Rutor.in неофициальное зеркало rutor. В случае если у Вас заблокирован rutor или вдруг Вы не можете на него зайти, то Вы без труда сможете скачать бесплатно и без рекламы последние новинки кино, игр, сериалов и прочего у нас, на Rutor.in. Не нужно использовать прокси, чтобы зайти на рутор, достаточно воспользоваться нашим ресурсом. Все новые фильмы, игры, сериалы, книги и музыка за 2013 и 2014 годы через торрент бесплатно. Скачивайте фильмы в хорошем качестве, игры для пк, xbox, playstation без регистрации. У нас вы найдете новые Зарубежные сериалы и Русские сериалы 2013, 2014, 2015 годов. Оставайтесь с нами, качайте любимые фильмы, игры, сериалы, книги и музыку.