img image001 image001 image001 image001 image001 image001 image001 image001 image001 image001 image001 image001 image001 image001 image001

Planets Sun Sun Sun
Статистика раздачи
Автор: Снежана | Размер: 1.48 ГБ | Добавлен: 27 июл 2013
Раздают: 62    Качают: 6
Скачать торрент
Скачать торрент
Описание торрента

СообщениеДобавлено: 27 июл 2013 

#77

Информация о фильме
Название: Маша и Медведь: Машины сказки
Год выхода: 2011-2012
Жанр: Мультфильм, Короткометражка, Детский, Комедия
Режиссер: Ринат Газизов, Денис Червяцов
В ролях: Алина Кукушкина

О фильме:
Вниманию юных зрителей и их родителей компанией «Мистерия Звука» и студией «Анимаккорд» представляется новый проект «Машины сказки». Любимица зрителей и великая фантазерка Маша со свойственной ей непосредственностью и чувством юмора, на свой лад рассказывает старые добрые, детские сказки. Ее истории несут в себе радость и веселье, поучительные мотивы и возможность вспомнить русские традиции и русские сказки, которые начали забываться. Маша расскажет малышам, почему надо быть послушными и добрыми, почему нельзя открывать дверь незнакомцам, почему нельзя пить из лужи, а также о том, что внешность может быть обманчива.

Содержание:
1.Волк и семеро козлят
2.Гуси-Лебеди
3.Красная шапочка
4.Лиса и Заяц
5.Морозко
6.Волк и Лиса
7.Вершки и корешки
8.Царевна-лягушка
9.Снегурочка
10.Мальчик с пальчик
11.Крошечка-хаврошечка
12.Бычок смолянной бочок

Complete name : F:Mashiny.skazki.2011-2012.x264.BDRip.720p7.Vershki.i.koreshki.2012.x264.BDRip.720p.mkv
Format : Matroska
Format version : Version 2
File size : 128 MiB
Duration : 5mn 51s
Overall bit rate : 3 046 Kbps
Encoded date : UTC 2012-11-15 07:02:24
Writing application : mkvmerge v5.8.0 ('No Sleep / Pillow') built on Sep 2 2012 15:37:04
Writing library : libebml v1.2.3 + libmatroska v1.3.0

Video
ID : 1
Format : AVC
Format/Info : Advanced Video Codec
Format profile : High@L4.1
Format settings, CABAC : Yes
Format settings, ReFrames : 9 frames
Codec ID : V_MPEG4/ISO/AVC
Duration : 5mn 51s
Bit rate : 2 346 Kbps
Width : 1 280 pixels
Height : 720 pixels
Display aspect ratio : 16:9
Frame rate mode : Constant
Frame rate : 24.000 fps
Color space : YUV
Chroma subsampling : 4:2:0
Bit depth : 8 bits
Scan type : Progressive
Bits/(Pixel*Frame) : 0.106
Stream size : 98.3 MiB (77%)
Writing library : x264 core 129 r2230 1cffe9f
Encoding settings : cabac=1 / ref=9 / deblock=1:-3:-3 / analyse=0x3:0x113 / me=tesa / subme=11 / psy=1 / psy_rd=1.00:0.00 / mixed_ref=1 / me_range=16 / chroma_me=1 / trellis=2 / 8x8dct=1 / cqm=0 / deadzone=21,11 / fast_pskip=0 / chroma_qp_offset=0 / threads=3 / lookahead_threads=1 / sliced_threads=0 / nr=0 / decimate=0 / interlaced=0 / bluray_compat=0 / constrained_intra=0 / bframes=8 / b_pyramid=2 / b_adapt=2 / b_bias=0 / direct=3 / weightb=1 / open_gop=0 / weightp=2 / keyint=240 / keyint_min=24 / scenecut=40 / intra_refresh=0 / rc=crf / mbtree=0 / crf=17.0 / qcomp=0.60 / qpmin=0 / qpmax=69 / qpstep=4 / ip_ratio=1.40 / pb_ratio=1.30 / aq=1:1.00
Language : Russian
Default : Yes
Forced : No

Audio
ID : 2
Format : AC-3
Format/Info : Audio Coding 3
Mode extension : CM (complete main)
Format settings, Endianness : Big
Codec ID : A_AC3
Duration : 5mn 51s
Bit rate mode : Constant
Bit rate : 640 Kbps
Channel(s) : 2 channels
Channel positions : Front: L R
Sampling rate : 48.0 KHz
Bit depth : 16 bits
Compression mode : Lossy
Stream size : 26.8 MiB (21%)
Language : Russian
Default : Yes
Forced : No

---[NoImage] x264 [info]: frame I:65 Avg QP:10.77 size:205390
---[NoImage] x264 [info]: frame P:1854 Avg QP:15.07 size: 26915
---[NoImage] x264 [info]: frame B:6456 Avg QP:15.81 size: 8096
---[NoImage] x264 [info]: consecutive B-frames: 3.1% 4.8% 9.0% 20.3% 12.3% 18.2% 4.7% 7.1% 20.5%

Страна: Россия
Студия: Студия "Анимаккорд"
Продолжительность: 12 x ~ 00:06:00
Перевод: Не требуется

Файл
Кодек: x264
Качество: BDRip720p
Видео: MPEG-4 AVC, x264, 1280x720 at 24.000 fps, ~2000 -2500 kbps
Звук: 48 kHz, AC3, 2/0 (L,R) ch, ~640.00 kbps avg




   Похожие торренты   Торрент   Размер 
В этой теме нет новых непрочитанных сообщений. Маша и Медведь: Машины сказки [01-12 из 12] (2011-2012) BDRip от HQ-ViDEO

666 | 36

1.1 ГБ

В этой теме нет новых непрочитанных сообщений. Маша и Медведь. Машины сказки [01-12 из 12] (2012) DVDRip-AVC

91 | 10

1.37 ГБ

В этой теме нет новых непрочитанных сообщений. Маша и медведь. Машины сказки [01-06 из 06] (2012) BDRip 1080p

0 | 2

1.81 ГБ

В этой теме нет новых непрочитанных сообщений. Маша и Медведь [01-27] + Машины сказки [01-12] (2009-2012) HDRip | КПК

63 | 106

1.67 ГБ

В этой теме нет новых непрочитанных сообщений. Маша и Медведь: Машины сказки [01-02x01-12 из 12] (2012) Blu-Ray от Youtracker

5 | 4

11.57 ГБ

В этой теме нет новых непрочитанных сообщений. Маша и Медведь. Машины сказки [01x01-06 из 06] (2012) BDRip 720p

421 | 84

1.1 ГБ

В этой теме нет новых непрочитанных сообщений. Маша и Медведь. Машины сказки [01] (2012) BDRip-AVC от potroks | Лицензия

7 | 3

696.53 МБ




Вы не можете начинать темы
Вы не можете отвечать на сообщения
Вы не можете редактировать свои сообщения
Вы не можете удалять свои сообщения
Вы не можете добавлять вложения

Перейти:  
Для Мосгорсуда, Роскомнадзора и рекламодателей: mosgorsud-torrent[собачка]yandex.ru
 Вход
ppkBB3cker v.2 © 2008-2014 @ PPK
[ Time : 0.021s | 14 Queries | GZIP : Off ]

Торрент трекер RUTOR.IN, Не можете зайти на rutor.org? Какой новый адрес рутор? Какое зеркало рутор? Не работает rutor.org и зеркала? Тогда наш торрент специально для вас. Rutor.in неофициальное зеркало rutor. В случае если у Вас заблокирован rutor или вдруг Вы не можете на него зайти, то Вы без труда сможете скачать бесплатно и без рекламы последние новинки кино, игр, сериалов и прочего у нас, на Rutor.in. Не нужно использовать прокси, чтобы зайти на рутор, достаточно воспользоваться нашим ресурсом. Все новые фильмы, игры, сериалы, книги и музыка за 2013 и 2014 годы через торрент бесплатно. Скачивайте фильмы в хорошем качестве, игры для пк, xbox, playstation без регистрации. У нас вы найдете новые Зарубежные сериалы и Русские сериалы 2013, 2014, 2015 годов. Оставайтесь с нами, качайте любимые фильмы, игры, сериалы, книги и музыку.