img image001 image001 image001 image001 image001 image001 image001 image001 image001 image001 image001 image001 image001 image001 image001

Planets Sun Sun Sun
Статистика раздачи
Автор: Снежана | Размер: 421.05 МБ | Добавлен: 27 июл 2013
Раздают: 26    Качают: 5
Скачать торрент
Скачать торрент
Описание торрента

СообщениеДобавлено: 27 июл 2013 

#77

Название: Как Гринч украл Рождество!
Оригинальное название: How the Grinch Stole Christmas!
Год выхода: 1966
Жанр: Мультфильм, мюзикл, фэнтези, комедия, семейный
Выпущено: США / MGM Television, The Cat in the Hat Productions
Режиссер: Чак Джонс, Бен Уошэм
В ролях: Борис Карлофф, Джун Форэй, Турль Рейвенскрофт

О фильме: Гринч живет на вершине холма над городком Ктоград со своим псом Максом. Каждый год во время Рождества ненависть Гринча к счастливым жителям Ктограда росла все больше и больше. Они дарили друг другу подарки, веселились на праздничных обедах и пели песни в городском парке, даже не подозревая о копящейся обиде Гринча. Однажды Гринч решил сорвать Рождество. Переодевшись в Санта Клауса, наскоро снарядившись и заставив свою собаку тащить его на санях, он пробрался в дома жителей городка и украл их подарки, еду и украшения…
General
Complete name : Как Гринч украл Рождество! (1966) BDRip — FilmRus.avi
Format : AVI
Format/Info : Audio Video Interleave
File size : 421 MiB
Duration : 25mn 45s
Overall bit rate : 2 286 Kbps
Writing application : VirtualDubMod 1.5.10.2 (build 2540/release)
Writing library : VirtualDubMod build 2540/release

Video
ID : 0
Format : MPEG-4 Visual
Format profile : Advanced Simple@L5
Format settings, BVOP : 2
Format settings, QPel : No
Format settings, GMC : No warppoints
Format settings, Matrix : Default (MPEG)
Muxing mode : Packed bitstream
Codec ID : XVID
Codec ID/Hint : XviD
Duration : 25mn 45s
Bit rate : 1 691 Kbps
Width : 704 pixels
Height : 512 pixels
Display aspect ratio : 1.375
Frame rate : 23.976 fps
Color space : YUV
Chroma subsampling : 4:2:0
Bit depth : 8 bits
Scan type : Progressive
Compression mode : Lossy
Bits/(Pixel*Frame) : 0.196
Stream size : 311 MiB (74%)
Writing library : XviD 1.2.1 (UTC 2008-12-04)

Audio #1
ID : 1
Format : AC-3
Format/Info : Audio Coding 3
Mode extension : CM (complete main)
Format settings, Endianness : Big
Codec ID : 2000
Duration : 25mn 44s
Bit rate mode : Constant
Bit rate : 192 Kbps
Channel(s) : 2 channels
Channel positions : Front: L R
Sampling rate : 48.0 KHz
Bit depth : 16 bits
Compression mode : Lossy
Stream size : 35.3 MiB (8%)
Alignment : Split accross interleaves
Interleave, duration : 42 ms (1.00 video frame)
Interleave, preload duration : 500 ms

Audio #2
ID : 2
Format : AC-3
Format/Info : Audio Coding 3
Mode extension : CM (complete main)
Format settings, Endianness : Big
Codec ID : 2000
Duration : 25mn 43s
Bit rate mode : Constant
Bit rate : 192 Kbps
Channel(s) : 2 channels
Channel positions : Front: L R
Sampling rate : 48.0 KHz
Bit depth : 16 bits
Compression mode : Lossy
Stream size : 35.3 MiB (8%)
Alignment : Split accross interleaves
Interleave, duration : 42 ms (1.00 video frame)
Interleave, preload duration : 500 ms

Audio #3
ID : 3
Format : AC-3
Format/Info : Audio Coding 3
Format profile : Dolby Digital
Mode extension : CM (complete main)
Format settings, Endianness : Big
Codec ID : 2000
Duration : 25mn 45s
Bit rate mode : Constant
Bit rate : 192 Kbps
Channel(s) : 2 channels
Channel positions : Front: L R
Sampling rate : 48.0 KHz
Bit depth : 16 bits
Compression mode : Lossy
Stream size : 35.4 MiB (8%)
Alignment : Split accross interleaves
Interleave, duration : 42 ms (1.00 video frame)
Interleave, preload duration : 500 ms

Перевод: Любительский (одноголосый) (ELVIS10, behaviour) + оригинал

Качество: BDRip
Видео: XviD, 1691 Кбит/с, 704x512
Аудио#1: Russian: 48 kHz, AC3, 2/0 (L,R) ch, ~192.00 kbps avg |Одноголосый закадровый, ELVIS10|
Аудио#2: Russian: 48 kHz, AC3 2/0 (L,R) ch, ~192.00 kbps avg |Одноголосый закадровый, behaviour|
Аудио#3: English: 48 kHz, AC3 2/0 (L,R) ch, ~192.00 kbps avg
Продолжительность: 00:25:45





Релиз от: by Gilbert

Цитата:
• За исходник спасибо BLUEBIRD и лично АДмин!
• Отрывок именно из этого мультфильма был показан в фильме «Один дома 2: Затерянный в Нью-Йорке».



   Похожие торренты   Торрент   Размер 
В этой теме нет новых непрочитанных сообщений. Как Гринч украл Рождество! / How the Grinch Stole Christmas! (1966) BDRip 720p от FilmRus

1 | 2

567.12 МБ

В этой теме нет новых непрочитанных сообщений. Как Гринч украл Рождество! / How the Grinch Stole Christmas! (1966) BDRip-AVC от MediaClub

16 | 4

539.52 МБ

В этой теме нет новых непрочитанных сообщений. Как Гринч украл Рождество! / How the Grinch Stole Christmas! (1966) BDRip от New-team

12 | 5

434.68 МБ

В этой теме нет новых непрочитанных сообщений. Как Гринч украл Рождество! / How the Grinch Stole Christmas! (1966) BDRip от HQCLUB

3 | 4

350.5 МБ

В этой теме нет новых непрочитанных сообщений. Как Гринч украл Рождество! / How the Grinch Stole Christmas! (1966) BDRip 1080p от MediaClub

29 | 10

1.6 ГБ

В этой теме нет новых непрочитанных сообщений. Гринч - похититель Рождества / How the Grinch Stole Christmas (2000) BDRip 720p от Filmrus

9 | 5

6.38 ГБ

В этой теме нет новых непрочитанных сообщений. Гринч – похититель Рождества / How the Grinch Stole Christmas (2000) BDRip-AVC

53 | 6

2.18 ГБ




Вы не можете начинать темы
Вы не можете отвечать на сообщения
Вы не можете редактировать свои сообщения
Вы не можете удалять свои сообщения
Вы не можете добавлять вложения

Перейти:  
Для Мосгорсуда, Роскомнадзора и рекламодателей: mosgorsud-torrent[собачка]yandex.ru
 Вход
ppkBB3cker v.2 © 2008-2014 @ PPK
[ Time : 0.031s | 14 Queries | GZIP : Off ]

Торрент трекер RUTOR.IN, Не можете зайти на rutor.org? Какой новый адрес рутор? Какое зеркало рутор? Не работает rutor.org и зеркала? Тогда наш торрент специально для вас. Rutor.in неофициальное зеркало rutor. В случае если у Вас заблокирован rutor или вдруг Вы не можете на него зайти, то Вы без труда сможете скачать бесплатно и без рекламы последние новинки кино, игр, сериалов и прочего у нас, на Rutor.in. Не нужно использовать прокси, чтобы зайти на рутор, достаточно воспользоваться нашим ресурсом. Все новые фильмы, игры, сериалы, книги и музыка за 2013 и 2014 годы через торрент бесплатно. Скачивайте фильмы в хорошем качестве, игры для пк, xbox, playstation без регистрации. У нас вы найдете новые Зарубежные сериалы и Русские сериалы 2013, 2014, 2015 годов. Оставайтесь с нами, качайте любимые фильмы, игры, сериалы, книги и музыку.