img image001 image001 image001 image001 image001 image001 image001 image001 image001 image001 image001 image001 image001 image001 image001

Planets Sun Sun Sun
Статистика раздачи
Автор: Снежана | Размер: 1.36 ГБ | Добавлен: 27 июл 2013
Раздают: 27    Качают: 3
Скачать торрент
Скачать торрент
Описание торрента

СообщениеДобавлено: 27 июл 2013 

Однажды в лесу / Once Upon a Forest (1993) DVDRip-AVC от TORRENT-45 | Лицензия



Название: Однажды в лесу
Оригинальное название: Once Upon a Forest
Год выхода: 1993
Жанр: мультфильм, приключения, семейный
Режиссер: Чарльз Гросвенор
В ролях: Майкл Кроуфорд, Бен Верин, Эллен Блэйн, Бенджи Грегори, Пейдж Госни, Элизабет Мосс, Пол Айдинг, Джанет Уолдо, Сьюзен Сайло, Уилл Эстес

Лесная школа, в которой, в свободной форме, маленькие пушистики познают мир. Учит их старый, мудрый барсук Корнелиус. Всего в классе учатся 4 ученика — Милая мышка Эбигель, крот Эдгар, ежик Рассел и, самая маленькая из класса, девочка-барсучёнок Мишель. Во время одного из уроков на природе они обнаруживают асфальтовую дорогу и становятся свидетелями аварии грузовика с цистерной, который перевозил химические отходы. Цистерна, как и положено ей, дала течь и смертоносные испарения потекли в сторону поселения пушистиков. В результате аварии серьезно отравилась Мишель, и учитель Корнелиус отправил оставшихся учеников в трудное путешествие в соседний лес за лекарственной травой.



Улучшенное изображение (выполнена цветокоррекция!)

Выпущено: США, Великобритания / Hanna-Barbera Productions
Продолжительность: 01:07:52
Перевод: Дублированный [Лицензия!]
Кодек: AVC
Качество: DVDRip-AVC
Видео: 1024x544 (16:9), 2441kbps, 23,976fps
Звук: AC3, 448kbps, 6ch, 48kHz

Релиз от:

Эта лента Чарльза Гросвенора может напомнить известную анимационную картину «Секрет НИМФ» Дона Блата, созданную в традициях сентиментально-консервативного кино Уолта Диснея, где милые и добрые зверюшки вызывают гораздо больше симпатии, чем бессердечные люди. Кстати, лишь за редким исключением человеческие персонажи получаются в американской мультипликации обычно малоинтересными и одномерными. Модная экологическая тема раскрыта в фильме «Однажды в лесу» именно с точки зрения животных. Но она всё-таки кажется прямолинейным дополнением к истории приключений лесной мышки Эбигейл, кротика Эдгара и ёжика Рассела, которые отважно отправились в дальний путь в поисках снадобья для заболевшей подружки-барсучихи. Замечательны сцены в стиле «спиричуэлс», в которых Бен Верин, известный афроамериканский актёр из мюзиклов (а в кино прославился, когда снялся в картине «Вся эта суета»), озвучивает роль птицы Финиаса.

Format : Matroska
Format version : Version 2
File size : 1.36 GiB
Duration : 1h 7mn
Overall bit rate : 2 878 Kbps
Encoded date : UTC 2012-12-01 11:48:33
Writing application : mkvmerge v5.8.0 ('No Sleep / Pillow') built on Sep 2 2012 15:37:04
Writing library : libebml v1.2.3 + libmatroska v1.3.0

Video
ID : 1
Format : AVC
Format/Info : Advanced Video Codec
Format profile : High@L4.1
Format settings, CABAC : Yes
Format settings, ReFrames : 5 frames
Codec ID : V_MPEG4/ISO/AVC
Duration : 1h 7mn
Bit rate : 2 441 Kbps
Width : 1 024 pixels
Height : 544 pixels
Display aspect ratio : 16:9
Frame rate mode : Constant
Frame rate : 25.000 fps
Color space : YUV
Chroma subsampling : 4:2:0
Bit depth : 8 bits
Scan type : Progressive
Bits/(Pixel*Frame) : 0.175
Stream size : 1.12 GiB (82%)
Writing library : x264 core 125 r2208 d9d2288
Encoding settings : cabac=1 / ref=5 / deblock=1:-3:-3 / analyse=0x3:0x133 / me=umh / subme=10 / psy=1 / psy_rd=1.00:0.00 / mixed_ref=1 / me_range=32 / chroma_me=1 / trellis=2 / 8x8dct=1 / cqm=0 / deadzone=21,11 / fast_pskip=1 / chroma_qp_offset=-2 / threads=6 / lookahead_threads=1 / sliced_threads=0 / nr=0 / decimate=1 / interlaced=0 / bluray_compat=0 / constrained_intra=0 / bframes=6 / b_pyramid=2 / b_adapt=2 / b_bias=0 / direct=1 / weightb=1 / open_gop=0 / weightp=2 / keyint=250 / keyint_min=23 / scenecut=40 / intra_refresh=0 / mbtree=1 / bitrate=2441 / ratetol=1.0 / qcomp=0.60 / qpmin=0 / qpmax=69 / qpstep=4 / ip_ratio=1.40 / aq=1:1.00
Default : Yes
Forced : No

Audio
ID : 2
Format : AC-3
Format/Info : Audio Coding 3
Mode extension : CM (complete main)
Format settings, Endianness : Big
Codec ID : A_AC3
Duration : 1h 7mn
Bit rate mode : Constant
Bit rate : 448 Kbps
Channel(s) : 6 channels
Channel positions : Front: L C R, Side: L R, LFE
Sampling rate : 48.0 KHz
Bit depth : 16 bits
Compression mode : Lossy
Stream size : 217 MiB (16%)
Default : Yes
Forced : No





   Похожие торренты   Торрент   Размер 
В этой теме нет новых непрочитанных сообщений. Однажды в лесу / Once Upon a Forest (1993) DVDRip

2 | 6

700.1 МБ

В этой теме нет новых непрочитанных сообщений. Однажды в лесу / Once Upon a Forest / Il etait une foret (2013) BDRip-AVC от -=HD-NET=-

55 | 7

1.07 ГБ

В этой теме нет новых непрочитанных сообщений. Однажды в лесу / Once Upon a Forest / Il était une forêt (2013) HDRip | P1

762 | 152

1.37 ГБ

В этой теме нет новых непрочитанных сообщений. Однажды в лесу / Once Upon a Forest / Il etait une foret (2013) BDRip 720p от NNNB

70 | 7

3.63 ГБ

В этой теме нет новых непрочитанных сообщений. Однажды в лесу / Once Upon a Forest / Il etait une foret (2013) BDRip 1080p от NNNB

179 | 9

7.73 ГБ

В этой теме нет новых непрочитанных сообщений. В лесу / The Forest (2011) SATRip

4 | 4

1.37 ГБ

В этой теме нет новых непрочитанных сообщений. В лесу / Into the Forest (2015) HDRip | L

775 | 246

1.46 ГБ




Вы не можете начинать темы
Вы не можете отвечать на сообщения
Вы не можете редактировать свои сообщения
Вы не можете удалять свои сообщения
Вы не можете добавлять вложения

Перейти:  
Для Мосгорсуда, Роскомнадзора и рекламодателей: mosgorsud-torrent[собачка]yandex.ru
 Вход
ppkBB3cker v.2 © 2008-2014 @ PPK
[ Time : 0.067s | 16 Queries | GZIP : Off ]

Торрент трекер RUTOR.IN, Не можете зайти на rutor.org? Какой новый адрес рутор? Какое зеркало рутор? Не работает rutor.org и зеркала? Тогда наш торрент специально для вас. Rutor.in неофициальное зеркало rutor. В случае если у Вас заблокирован rutor или вдруг Вы не можете на него зайти, то Вы без труда сможете скачать бесплатно и без рекламы последние новинки кино, игр, сериалов и прочего у нас, на Rutor.in. Не нужно использовать прокси, чтобы зайти на рутор, достаточно воспользоваться нашим ресурсом. Все новые фильмы, игры, сериалы, книги и музыка за 2013 и 2014 годы через торрент бесплатно. Скачивайте фильмы в хорошем качестве, игры для пк, xbox, playstation без регистрации. У нас вы найдете новые Зарубежные сериалы и Русские сериалы 2013, 2014, 2015 годов. Оставайтесь с нами, качайте любимые фильмы, игры, сериалы, книги и музыку.
cron