img image001 image001 image001 image001 image001 image001 image001 image001 image001 image001 image001 image001 image001 image001 image001

Planets Sun Sun Sun
Статистика раздачи
Автор: Снежана | Размер: 745.73 МБ | Добавлен: 27 июл 2013
Раздают: 4    Качают: 1
Скачать торрент
Скачать торрент
Описание торрента

СообщениеДобавлено: 27 июл 2013 

#77
Страна: США
Жанр: фантастика, комедия, приключения, семейный, мультфильм
Год выпуска: 2008
Продолжительность: 01:20:35

Перевод: Профессиональный (дублированный)
Оригинальная аудиодорожка: нет
Cубтитры: нет

Режиссер: Кирк де Микко / Kirk De Micco

Роли озвучивали: Энди Сэмберг, Шерил Хайнс, Джефф Дэниелс, Патрик Варбертон, Кристин Ченоуэт, Кенан Томпсон, Зак Шэда, Карлос Алазраки, Омид Абтахи, Патрик Брин...

Роли дублировали: Андрей Чижов, Вячеслав Баранов, Роман Трахтенберг, Ольга Шорохова, Александр Рахленко

Описание: Человечество стоит на пороге великого события! Уникальная команда из трёх обезьянок-австронавтов должна отправиться в путешествие по галактике. Луна — типичная отличница, рациональная и всегда знающая ответ на все вопросы. Титан — типичный «супер герой» — груда мускул и очень большое эго. И Хэм — внук первой мартышки-астронавта, мечтающий работать в цирке.
НКРП (Национальное Космическое Ракетное Подразделение) снаряжает их в опасный полёт, в поисках обитаемой планеты. Команда натыкается на таинственную планету Вазуу, где обитают необычные и странные животные, во главе с их Королём. Именно по его приказу похищают Титана и космический корабль мартышек, и теперь, Хэму и Люси предстоит научиться работать вместе, чтобы спасти товарища и вернуться домой. Но они даже не представляют, с какими приключениями им придётся столкнуться!…





Исходник: BDRip 1080p
Тип релиза: HDRip
Контейнер: AVI

Видео: 720x304 (2,35:1), 23.976 fps, XviD ~ 1156 kbps avg, 0.220 bit/pixel
Аудио: 48 kHz, MP3, 2 ch, 128.00 kbps Русский

Раздача от:
Общее
Полное имя : Martyshki.v.kosmose.2008.D.DVDRip_[Youtracker]_by_AVP Studio.avi
Формат : AVI
Формат/Информация : Audio Video Interleave
Размер файла : 746 Мбайт
Продолжительность : 1 ч. 20 м.
Общий поток : 1294 Кбит/сек
Программа кодирования : VirtualDubMod 1.5.10.3 | www.virtualdub-fr.org || (build 2550/release)
Библиотека кодирования : VirtualDubMod build 2550/release

Видео
Идентификатор : 0
Формат : MPEG-4 Visual
Профиль формата : Advanced Simple@L5
Параметр BVOP формата : 1
Параметр QPel формата : Нет
Параметр GMC формата : Без точки перехода
Параметр матрицы формата : Выборочная
Идентификатор кодека : XVID
Идентификатор кодека/Подсказка : XviD
Продолжительность : 1 ч. 20 м.
Битрейт : 1156 Кбит/сек
Ширина : 720 пикселей
Высота : 304 пикселя
Соотношение сторон : 2,35:1
Частота кадров : 23,976 кадра/сек
Цветовое пространство : YUV
Субдискретизация насыщенности : 4:2:0
Битовая глубина : 8 бит
Тип развёртки : Прогрессивная
Метод сжатия : С потерями
Бит/(Пиксели*Кадры) : 0.220
Размер потока : 667 Мбайт (89%)
Библиотека кодирования : XviD 65

Аудио
Идентификатор : 1
Формат : MPEG Audio
Версия формата : Version 1
Профиль формата : Layer 3
Режим : Joint stereo
Расширение режима : MS Stereo
Идентификатор кодека : 55
Идентификатор кодека/Подсказка : MP3
Продолжительность : 1 ч. 20 м.
Вид битрейта : Постоянный
Битрейт : 128 Кбит/сек
Каналы : 2 канала
Частота : 48,0 КГц
Метод сжатия : С потерями
Размер потока : 73,8 Мбайт (10%)
Выравнивание : Соединение по промежуткам
Продолжительность промежутка : 42 мс. (1,00 видеокадр)
Время предзагрузки промежутка : 504 мс





   Похожие торренты   Торрент   Размер 
В этой теме нет новых непрочитанных сообщений. Мартышки в космосе / Space Chimps (2008) HDRip-AVC от Youtracker

32 | 3

1.46 ГБ

В этой теме нет новых непрочитанных сообщений. Мартышки в космосе: Ответный удар / Space Chimps 2: Zartog Strikes Back (2010) HDRip от Youtracker

41 | 3

1.46 ГБ

В этой теме нет новых непрочитанных сообщений. Мартышки в космосе: Ответный удар / Space Chimps 2: Zartog Strikes Back (2010) HDRip-AVC от Youtracker

8 | 2

1.46 ГБ

В этой теме нет новых непрочитанных сообщений. Мартышки в космосе: Ответный удар / Space Chimps 2: Zartog Strikes Back (2010) HDRip от Youtracker

8 | 2

745.24 МБ

В этой теме нет новых непрочитанных сообщений. Мартышки в космосе / Space Chimps (2008) DVDRip

3 | 3

697.28 МБ

В этой теме нет новых непрочитанных сообщений. Мартышки в космосе / Space Chimps (2008) от HQ-ViDEO

3 | 4

1.46 ГБ

В этой теме нет новых непрочитанных сообщений. Мартышки в космосе / Space Chimps (2008) BDRip 1080p

11 | 1

4.36 ГБ




Вы не можете начинать темы
Вы не можете отвечать на сообщения
Вы не можете редактировать свои сообщения
Вы не можете удалять свои сообщения
Вы не можете добавлять вложения

Перейти:  
Для Мосгорсуда, Роскомнадзора и рекламодателей: mosgorsud-torrent[собачка]yandex.ru
 Вход
ppkBB3cker v.2 © 2008-2014 @ PPK
[ Time : 0.083s | 14 Queries | GZIP : Off ]

Торрент трекер RUTOR.IN, Не можете зайти на rutor.org? Какой новый адрес рутор? Какое зеркало рутор? Не работает rutor.org и зеркала? Тогда наш торрент специально для вас. Rutor.in неофициальное зеркало rutor. В случае если у Вас заблокирован rutor или вдруг Вы не можете на него зайти, то Вы без труда сможете скачать бесплатно и без рекламы последние новинки кино, игр, сериалов и прочего у нас, на Rutor.in. Не нужно использовать прокси, чтобы зайти на рутор, достаточно воспользоваться нашим ресурсом. Все новые фильмы, игры, сериалы, книги и музыка за 2013 и 2014 годы через торрент бесплатно. Скачивайте фильмы в хорошем качестве, игры для пк, xbox, playstation без регистрации. У нас вы найдете новые Зарубежные сериалы и Русские сериалы 2013, 2014, 2015 годов. Оставайтесь с нами, качайте любимые фильмы, игры, сериалы, книги и музыку.