img image001 image001 image001 image001 image001 image001 image001 image001 image001 image001 image001 image001 image001 image001 image001

Planets Sun Sun Sun
Статистика раздачи
Автор: Снежана | Размер: 745.24 МБ | Добавлен: 27 июл 2013
Раздают: 8    Качают: 2
Скачать торрент
Скачать торрент
Описание торрента

СообщениеДобавлено: 27 июл 2013 

«Полный улёт»



#77
Страна: США
Жанр: фантастика, комедия, приключения, семейный, мультфильм
Год выпуска: 2010
Продолжительность: 01:15:40

Перевод: Профессиональный (дублированный)
Оригинальная аудиодорожка: нет
Cубтитры: нет

Режиссер: Джон Х. Уильямс / John H. Williams

Роли озвучивали: Том Кенни, Зак Шэда, Патрик Варбертон, Шерил Хайнс, Карлос Алазраки, Лора Бэйли, Джон Ди Маджио, Стенли Туччи, Патрик Брин, Джейн Линч...

Роли дублировали: Диомид Виноградов, Дмитрий Курта, Михаил Георгиу, Вероника Саркисова, Вячеслав Баранов...

Описание: Продолжение анимационной комедии 2008 года о космических приключениях мартышек. На этот раз к звездолетной обезьяньей команде, состоящей из Хэма, Луны и Титана, присоединяется новичок Комет, мечтающий стать настоящим космическим шимпанзе. Он отправляется на планету Мангор, где знакомится с инопланетянином Киловаттом. Когда злодей Зартог пытается захватить власть, наступает время для Комета проявить себя. Разумеется, не без помощи новых друзей…





Исходник: BDRip 1080p
Тип релиза: HDRip
Контейнер: AVI

Видео: 720x384 (1,875:1), 23.976 fps, XviD ~ 1240 kbps avg, 0.187 bit/pixel
Аудио: 48 kHz, MP3, 2 ch, 128.00 kbps

Раздача от:
Общее
Полное имя : Martyshki.v.kosmose.Otvetnyj.udar.2010.DVDRip.745_[Youtracker]_by_AVP Studio.avi
Формат : AVI
Формат/Информация : Audio Video Interleave
Размер файла : 745 Мбайт
Продолжительность : 1 ч. 15 м.
Общий поток : 1377 Кбит/сек
Программа кодирования : VirtualDubMod 1.5.10.3 | www.virtualdub-fr.org || (build 2550/release)
Библиотека кодирования : VirtualDubMod build 2550/release

Видео
Идентификатор : 0
Формат : MPEG-4 Visual
Профиль формата : Advanced Simple@L5
Параметр BVOP формата : 1
Параметр QPel формата : Нет
Параметр GMC формата : Без точки перехода
Параметр матрицы формата : Выборочная
Идентификатор кодека : XVID
Идентификатор кодека/Подсказка : XviD
Продолжительность : 1 ч. 15 м.
Битрейт : 1240 Кбит/сек
Ширина : 720 пикселей
Высота : 384 пикселя
Соотношение сторон : 1,875
Частота кадров : 23,976 кадра/сек
Цветовое пространство : YUV
Субдискретизация насыщенности : 4:2:0
Битовая глубина : 8 бит
Тип развёртки : Прогрессивная
Метод сжатия : С потерями
Бит/(Пиксели*Кадры) : 0.187
Размер потока : 671 Мбайт (90%)
Библиотека кодирования : XviD 65

Аудио
Идентификатор : 1
Формат : MPEG Audio
Версия формата : Version 1
Профиль формата : Layer 3
Идентификатор кодека : 55
Идентификатор кодека/Подсказка : MP3
Продолжительность : 1 ч. 15 м.
Вид битрейта : Постоянный
Битрейт : 128 Кбит/сек
Каналы : 2 канала
Частота : 48,0 КГц
Метод сжатия : С потерями
Размер потока : 69,2 Мбайт (9%)
Выравнивание : Соединение по промежуткам
Продолжительность промежутка : 42 мс. (1,00 видеокадр)
Время предзагрузки промежутка : 504 мс.
Библиотека кодирования : L3.99r
Настройки программы : -m s -V 4 -q 2 -lowpass 17 -b 128





   Похожие торренты   Торрент   Размер 
В этой теме нет новых непрочитанных сообщений. Мартышки в космосе: Ответный удар / Space Chimps 2: Zartog Strikes Back (2010) HDRip от Youtracker

41 | 3

1.46 ГБ

В этой теме нет новых непрочитанных сообщений. Мартышки в космосе: Ответный удар / Space Chimps 2: Zartog Strikes Back (2010) HDRip-AVC от Youtracker

8 | 2

1.46 ГБ

В этой теме нет новых непрочитанных сообщений. Мартышки в космосе: Ответный удар / Space Chimps 2: Zartog Strikes Back (2010) BDRip 1080p от Youtracker | 3D-Video

1 | 3

5.44 ГБ

В этой теме нет новых непрочитанных сообщений. Мартышки в космосе: Ответный удар / Space Chimps 2: Zartog Strikes Back 2D + 3D (2010) BluRay

0 | 2

31.35 ГБ

В этой теме нет новых непрочитанных сообщений. Мартышки в космосе: Ответный удар / Space Chimps 2: Zartog Strikes Back (2010) DVDRip

2 | 5

1.36 ГБ

В этой теме нет новых непрочитанных сообщений. Мартышки в космосе: Ответный удар / Space Chimps 2: Zartog Strikes Back (2010) BDRip 720 от SuperMin

24 | 4

4.15 ГБ

В этой теме нет новых непрочитанных сообщений. Мартышки в космосе: Ответный удар / Space Chimps 2: Zartog Strikes Back 3D (2010) BDRip 720p | 3D-Video

0 | 1

2.1 ГБ




Вы не можете начинать темы
Вы не можете отвечать на сообщения
Вы не можете редактировать свои сообщения
Вы не можете удалять свои сообщения
Вы не можете добавлять вложения

Перейти:  
Для Мосгорсуда, Роскомнадзора и рекламодателей: mosgorsud-torrent[собачка]yandex.ru
 Вход
ppkBB3cker v.2 © 2008-2014 @ PPK
[ Time : 0.025s | 15 Queries | GZIP : Off ]

Торрент трекер RUTOR.IN, Не можете зайти на rutor.org? Какой новый адрес рутор? Какое зеркало рутор? Не работает rutor.org и зеркала? Тогда наш торрент специально для вас. Rutor.in неофициальное зеркало rutor. В случае если у Вас заблокирован rutor или вдруг Вы не можете на него зайти, то Вы без труда сможете скачать бесплатно и без рекламы последние новинки кино, игр, сериалов и прочего у нас, на Rutor.in. Не нужно использовать прокси, чтобы зайти на рутор, достаточно воспользоваться нашим ресурсом. Все новые фильмы, игры, сериалы, книги и музыка за 2013 и 2014 годы через торрент бесплатно. Скачивайте фильмы в хорошем качестве, игры для пк, xbox, playstation без регистрации. У нас вы найдете новые Зарубежные сериалы и Русские сериалы 2013, 2014, 2015 годов. Оставайтесь с нами, качайте любимые фильмы, игры, сериалы, книги и музыку.