img image001 image001 image001 image001 image001 image001 image001 image001 image001 image001 image001 image001 image001 image001 image001

Planets Sun Sun Sun
Статистика раздачи
Автор: Снежана | Размер: 1.46 ГБ | Добавлен: 27 июл 2013
Раздают: 41    Качают: 3
Скачать торрент
Скачать торрент
Описание торрента

СообщениеДобавлено: 27 июл 2013 

«Полный улёт»



#77
Страна: США
Жанр: фантастика, комедия, приключения, семейный, мультфильм
Год выпуска: 2010
Продолжительность: 01:15:40

Перевод: Профессиональный (дублированный)
Оригинальная аудиодорожка: английский
Cубтитры: нет

Режиссер: Джон Х. Уильямс / John H. Williams

Роли озвучивали: Том Кенни, Зак Шэда, Патрик Варбертон, Шерил Хайнс, Карлос Алазраки, Лора Бэйли, Джон Ди Маджио, Стенли Туччи, Патрик Брин, Джейн Линч...

Роли дублировали: Диомид Виноградов, Дмитрий Курта, Михаил Георгиу, Вероника Саркисова, Вячеслав Баранов...

Описание: Продолжение анимационной комедии 2008 года о космических приключениях мартышек. На этот раз к звездолетной обезьяньей команде, состоящей из Хэма, Луны и Титана, присоединяется новичок Комет, мечтающий стать настоящим космическим шимпанзе. Он отправляется на планету Мангор, где знакомится с инопланетянином Киловаттом. Когда злодей Зартог пытается захватить власть, наступает время для Комета проявить себя. Разумеется, не без помощи новых друзей…





Исходник: BDRip 1080p
Тип релиза: HDRip
Контейнер: AVI

Видео: 720x384 (1,875:1), 23.976 fps, XviD ~ 1851 kbps avg, 0.279 bit/pixel
Аудио 1: 48 kHz, AC3, 6 ch, 448.00 kbps Русский
Аудио 2: 48 kHz, AC3, 6 ch, 448.00 kbps Английский

Раздача от:
Общее
Полное имя : Martyshki.v.kosmose.Otvetnyj.udar.2010.DVDRip_[Youtracker]_by_AVP Studio.avi
Формат : AVI
Формат/Информация : Audio Video Interleave
Размер файла : 1,46 Гбайт
Продолжительность : 1 ч. 15 м.
Общий поток : 2760 Кбит/сек
Программа кодирования : VirtualDubModRus 1.5.10.2 (build 2542/release)
Библиотека кодирования : VirtualDubMod build 2542/release

Видео
Идентификатор : 0
Формат : MPEG-4 Visual
Профиль формата : Advanced Simple@L5
Параметр BVOP формата : 1
Параметр QPel формата : Нет
Параметр GMC формата : Без точки перехода
Параметр матрицы формата : Выборочная
Идентификатор кодека : XVID
Идентификатор кодека/Подсказка : XviD
Продолжительность : 1 ч. 15 м.
Битрейт : 1851 Кбит/сек
Ширина : 720 пикселей
Высота : 384 пикселя
Соотношение сторон : 1,875
Частота кадров : 23,976 кадра/сек
Цветовое пространство : YUV
Субдискретизация насыщенности : 4:2:0
Битовая глубина : 8 бит
Тип развёртки : Прогрессивная
Метод сжатия : С потерями
Бит/(Пиксели*Кадры) : 0.279
Размер потока : 1002 Мбайт (67%)
Библиотека кодирования : XviD 65

Аудио #1
Идентификатор : 1
Формат : AC-3
Формат/Информация : Audio Coding 3
Расширение режима : CM (complete main)
Идентификатор кодека : 2000
Продолжительность : 1 ч. 15 м.
Вид битрейта : Постоянный
Битрейт : 448 Кбит/сек
Каналы : 6 каналов
Расположение каналов : Front: L C R, Side: L R, LFE
Частота : 48,0 КГц
Битовая глубина : 16 бит
Метод сжатия : С потерями
Размер потока : 242 Мбайт (16%)
Выравнивание : Разделение по промежуткам
Продолжительность промежутка : 42 мс. (1,00 видеокадр)
Время предзагрузки промежутка : 500 мс.

Аудио #2
Идентификатор : 2
Формат : AC-3
Формат/Информация : Audio Coding 3
Расширение режима : CM (complete main)
Идентификатор кодека : 2000
Продолжительность : 1 ч. 15 м.
Вид битрейта : Постоянный
Битрейт : 448 Кбит/сек
Каналы : 6 каналов
Расположение каналов : Front: L C R, Side: L R, LFE
Частота : 48,0 КГц
Битовая глубина : 16 бит
Метод сжатия : С потерями
Размер потока : 242 Мбайт (16%)
Выравнивание : Разделение по промежуткам
Продолжительность промежутка : 42 мс. (1,00 видеокадр)
Время предзагрузки промежутка : 500 мс





   Похожие торренты   Торрент   Размер 
В этой теме нет новых непрочитанных сообщений. Мартышки в космосе: Ответный удар / Space Chimps 2: Zartog Strikes Back (2010) HDRip от Youtracker

8 | 2

745.24 МБ

В этой теме нет новых непрочитанных сообщений. Мартышки в космосе: Ответный удар / Space Chimps 2: Zartog Strikes Back (2010) HDRip-AVC от Youtracker

8 | 2

1.46 ГБ

В этой теме нет новых непрочитанных сообщений. Мартышки в космосе: Ответный удар / Space Chimps 2: Zartog Strikes Back (2010) BDRip 1080p от Youtracker | 3D-Video

1 | 3

5.44 ГБ

В этой теме нет новых непрочитанных сообщений. Мартышки в космосе: Ответный удар / Space Chimps 2: Zartog Strikes Back (2010) DVDRip

2 | 5

1.36 ГБ

В этой теме нет новых непрочитанных сообщений. Мартышки в космосе: Ответный удар / Space Chimps 2: Zartog Strikes Back 2D + 3D (2010) BluRay

0 | 2

31.35 ГБ

В этой теме нет новых непрочитанных сообщений. Мартышки в космосе: Ответный удар / Space Chimps 2: Zartog Strikes Back (2010) BDRip 720 от SuperMin

24 | 4

4.15 ГБ

В этой теме нет новых непрочитанных сообщений. Мартышки в космосе: Ответный удар / Space Chimps 2: Zartog Strikes Back 3D (2010) BDRip 720p | 3D-Video

0 | 1

2.1 ГБ




Вы не можете начинать темы
Вы не можете отвечать на сообщения
Вы не можете редактировать свои сообщения
Вы не можете удалять свои сообщения
Вы не можете добавлять вложения

Перейти:  
Для Мосгорсуда, Роскомнадзора и рекламодателей: mosgorsud-torrent[собачка]yandex.ru
 Вход
ppkBB3cker v.2 © 2008-2014 @ PPK
[ Time : 0.895s | 16 Queries | GZIP : Off ]

cron