img image001 image001 image001 image001 image001 image001 image001 image001 image001 image001 image001 image001 image001 image001 image001

Planets Sun Sun Sun
Статистика раздачи
Автор: Снежана | Размер: 1.46 ГБ | Добавлен: 27 июл 2013
Раздают: 8    Качают: 2
Скачать торрент
Скачать торрент
Описание торрента

СообщениеДобавлено: 27 июл 2013 

«Полный улёт»



#77
Страна: США
Жанр: фантастика, комедия, приключения, семейный, мультфильм
Год выпуска: 2010
Продолжительность: 01:15:40

Перевод: Профессиональный (дублированный)
Оригинальная аудиодорожка: нет
Cубтитры: нет

Режиссер: Джон Х. Уильямс / John H. Williams

Роли озвучивали: Том Кенни, Зак Шэда, Патрик Варбертон, Шерил Хайнс, Карлос Алазраки, Лора Бэйли, Джон Ди Маджио, Стенли Туччи, Патрик Брин, Джейн Линч...

Роли дублировали: Диомид Виноградов, Дмитрий Курта, Михаил Георгиу, Вероника Саркисова, Вячеслав Баранов...

Описание: Продолжение анимационной комедии 2008 года о космических приключениях мартышек. На этот раз к звездолетной обезьяньей команде, состоящей из Хэма, Луны и Титана, присоединяется новичок Комет, мечтающий стать настоящим космическим шимпанзе. Он отправляется на планету Мангор, где знакомится с инопланетянином Киловаттом. Когда злодей Зартог пытается захватить власть, наступает время для Комета проявить себя. Разумеется, не без помощи новых друзей…





Исходник: BDRip 1080p
Тип релиза: HDRip-AVC
Контейнер: MKV

Видео: 1024x550 (1,862:1), 23.976 fps, H264 ~ 2305 kbps avg, 0.171 bit/pixel
Аудио: 48 kHz, AC3, 6 ch, 448.00 kbps

Раздача от:
Общее
Полное имя : Martyshki.v.kosmose.Otvetnyj.udar.2010.DVDRip-AVC_[Youtracker]_by_AVP Studio.mkv
Формат : Matroska
Версия формата : Version 2
Размер файла : 1,46 Гбайт
Продолжительность : 1 ч. 15 м.
Общий поток : 2755 Кбит/сек
Дата кодирования : UTC 2012-12-03 04:48:50
Программа кодирования : mkvmerge v5.0.1 ('Es ist Sommer') built on Nov 6 2011 16:23:40
Библиотека кодирования : libebml v1.2.2 + libmatroska v1.3.0

Видео
Идентификатор : 1
Формат : AVC
Формат/Информация : Advanced Video Codec
Профиль формата : High@L4.1
Параметр CABAC формата : Да
Параметр ReFrames формата : 11 кадров
Идентификатор кодека : V_MPEG4/ISO/AVC
Продолжительность : 1 ч. 15 м.
Битрейт : 2305 Кбит/сек
Ширина : 1024 пикселя
Высота : 550 пикселей
Соотношение сторон : 1,862
Частота кадров : 23,976 кадра/сек
Цветовое пространство : YUV
Субдискретизация насыщенности : 4:2:0
Битовая глубина : 8 бит
Тип развёртки : Прогрессивная
Бит/(Пиксели*Кадры) : 0.171
Размер потока : 1,19 Гбайт (82%)
Библиотека кодирования : x264 core 119 r2106 07efeb4
Настройки программы : cabac=1 / ref=11 / deblock=1:-2:-1 / analyse=0x3:0x113 / me=umh / subme=9 / psy=1 / psy_rd=1.00:0.10 / mixed_ref=1 / me_range=32 / chroma_me=1 / trellis=1 / 8x8dct=1 / cqm=0 / deadzone=21,11 / fast_pskip=0 / chroma_qp_offset=-3 / threads=3 / sliced_threads=0 / nr=0 / decimate=1 / interlaced=0 / bluray_compat=0 / constrained_intra=0 / bframes=10 / b_pyramid=2 / b_adapt=1 / b_bias=0 / direct=3 / weightb=1 / open_gop=0 / weightp=2 / keyint=240 / keyint_min=23 / scenecut=40 / intra_refresh=0 / rc_lookahead=60 / rc=2pass / mbtree=1 / bitrate=2305 / ratetol=1.0 / qcomp=0.60 / qpmin=0 / qpmax=69 / qpstep=4 / cplxblur=20.0 / qblur=0.5 / ip_ratio=1.40 / aq=1:1.00
Default : Да
Forced : Нет

Аудио
Идентификатор : 2
Формат : AC-3
Формат/Информация : Audio Coding 3
Расширение режима : CM (complete main)
Идентификатор кодека : A_AC3
Продолжительность : 1 ч. 15 м.
Вид битрейта : Постоянный
Битрейт : 448 Кбит/сек
Каналы : 6 каналов
Расположение каналов : Front: L C R, Side: L R, LFE
Частота : 48,0 КГц
Битовая глубина : 16 бит
Метод сжатия : С потерями
Размер потока : 242 Мбайт (16%)
Default : Да
Forced : Нет





   Похожие торренты   Торрент   Размер 
В этой теме нет новых непрочитанных сообщений. Мартышки в космосе: Ответный удар / Space Chimps 2: Zartog Strikes Back (2010) HDRip от Youtracker

8 | 2

745.24 МБ

В этой теме нет новых непрочитанных сообщений. Мартышки в космосе: Ответный удар / Space Chimps 2: Zartog Strikes Back (2010) HDRip от Youtracker

41 | 3

1.46 ГБ

В этой теме нет новых непрочитанных сообщений. Мартышки в космосе: Ответный удар / Space Chimps 2: Zartog Strikes Back (2010) BDRip 1080p от Youtracker | 3D-Video

1 | 3

5.44 ГБ

В этой теме нет новых непрочитанных сообщений. Мартышки в космосе: Ответный удар / Space Chimps 2: Zartog Strikes Back 2D + 3D (2010) BluRay

0 | 2

31.35 ГБ

В этой теме нет новых непрочитанных сообщений. Мартышки в космосе: Ответный удар / Space Chimps 2: Zartog Strikes Back (2010) DVDRip

2 | 5

1.36 ГБ

В этой теме нет новых непрочитанных сообщений. Мартышки в космосе: Ответный удар / Space Chimps 2: Zartog Strikes Back (2010) BDRip 720 от SuperMin

24 | 4

4.15 ГБ

В этой теме нет новых непрочитанных сообщений. Мартышки в космосе: Ответный удар / Space Chimps 2: Zartog Strikes Back 3D (2010) BDRip 1080p | 3D-Video

4 | 3

5.88 ГБ




Вы не можете начинать темы
Вы не можете отвечать на сообщения
Вы не можете редактировать свои сообщения
Вы не можете удалять свои сообщения
Вы не можете добавлять вложения

Перейти:  
Для Мосгорсуда, Роскомнадзора и рекламодателей: mosgorsud-torrent[собачка]yandex.ru
 Вход
ppkBB3cker v.2 © 2008-2014 @ PPK
[ Time : 0.135s | 15 Queries | GZIP : Off ]

cron