img image001 image001 image001 image001 image001 image001 image001 image001 image001 image001 image001 image001 image001 image001 image001

Planets Sun Sun Sun
Статистика раздачи
Автор: Снежана | Размер: 899.49 МБ | Добавлен: 27 июл 2013
Раздают: 9    Качают: 4
Скачать торрент
Скачать торрент
Описание торрента

СообщениеДобавлено: 27 июл 2013 

#77

Информация о фильме
Название: Обитель зла: Проклятие
Оригинальное название: Resident Evil Damnation
Год выхода: 2012
Жанр: мультфильм, ужасы, фантастика, боевик, триллер
Режиссер: Макото Камия
В ролях: Мэттью Мерсер, Дейв Уиттенберг, Уэнди Ли, Вэл Тассо, Робин Сакс, Кортни Тейлор, Салли Саффиоти, Дэвид Эрнест, Патрик Сэйтц, Майкл МакКоннохи

О фильме:
Спецагент Соединенных Штатов Леон С. Кеннеди инкогнито проникает в маленькое восточноевропейское государство, чтобы проверить, действительно ли в ходе войны используется биоорганическое оружие. Однако вскоре после его приезда правительство внезапно дает задний ход: Кеннеди получает приказ немедленно покинуть страну. Полный решимости во что бы то ни стало узнать правду, Леон игнорирует указания свыше и ступает на кровавое поле битвы, чтобы оборвать цепь трагических смертей.

"Обитель зла: Проклятие" - взрывной, будоражащий экшен в жанре аниме, настолько же пугающий, насколько завораживающий высококлассной графикой и захватывающим сюжетом.
Официальный сайт

Страна: Япония
Студия: CAPCOM
Продолжительность: 01:40:01
Перевод: Профессиональный многоголосый (лицензия)

Файл
Кодек: x264
Качество: BDRip-AVC
Видео: AVC; x264; 720х400 (16:9), 23.976 fps ~ 1 000 Kbps
Звук:
Русский: MPEG-1 Audio Layer 3; 48.0 KHz; 128 Kbps; CBR; 2 ch
Английский: MPEG-1 Audio Layer 3; 48.0 KHz; 128 Kbps; CBR; 2 ch
Субтитры: Русские, английские

Семпл

Format: Matroska
Format version: Version 2
File size: 899 MiB
Duration: 1h 40mn
Overall bit rate: 1 257 Kbps
Movie name: Resident Evil: Damnation – Blu-ray™
Encoded date: UTC 2012-12-02 13:53:01
Writing application: mkvmerge v5.8.0 ('No Sleep / Pillow') built on Sep 2 2012 15:37:04
Writing library: XviD4PSP 6.0 / 54.29.105

Video
ID: 1
Format: AVC
Format/Info: Advanced Video Codec
Format profile: High@L4.1
Format settings, CABAC: Yes
Format settings, ReFrames: 5 frames
Muxing mode: Header stripping
Codec ID: V_MPEG4/ISO/AVC
Duration: 1h 40mn
Bit rate: 1 000 Kbps
Width: 720 pixels
Height: 400 pixels
Display aspect ratio: 16:9
Frame rate mode: Constant
Frame rate: 23.976 fps
Color space: YUV
Chroma subsampling: 4:2:0
Bit depth: 8 bits
Scan type: Progressive
Bits/(Pixel*Frame): 0.145
Stream size: 698 MiB (78%)
Title: Resident Evil Damnation rip by Heroman2011
Writing library: x264 core 128 r2216M 198a7ea
Encoding settings: cabac=1 / ref=6 / deblock=1:0:0 / analyse=0x3:0x133 / me=umh / subme=11 / psy=1 / psy_rd=1.00:0.20 / mixed_ref=1 / me_range=32 / chroma_me=1 / trellis=2 / 8x8dct=1 / cqm=0 / deadzone=21,11 / fast_pskip=1 / chroma_qp_offset=-3 / threads=6 / lookahead_threads=1 / sliced_threads=0 / nr=0 / decimate=1 / interlaced=0 / bluray_compat=0 / constrained_intra=0 / bframes=6 / b_pyramid=1 / b_adapt=2 / b_bias=0 / direct=3 / weightb=1 / open_gop=0 / weightp=2 / keyint=230 / keyint_min=23 / scenecut=40 / intra_refresh=0 / rc_lookahead=40 / rc=2pass / mbtree=1 / bitrate=1000 / ratetol=1.0 / qcomp=0.60 / qpmin=10 / qpmax=51 / qpstep=4 / cplxblur=20.0 / qblur=0.5 / ip_ratio=1.40 / aq=1:1.00
Language: English
Default: Yes
Forced: No

Audio #1
ID: 2
Format: MPEG Audio
Format version: Version 1
Format profile: Layer 3
Mode: Joint stereo
Mode extension: MS Stereo
Muxing mode: Header stripping
Codec ID: A_MPEG/L3
Codec ID/Hint: MP3
Duration: 1h 40mn
Bit rate mode: Constant
Bit rate: 128 Kbps
Channel(s): 2 channels
Sampling rate: 48.0 KHz
Compression mode: Lossy
Stream size: 91.6 MiB (10%)
Title: Русский @ 128 kbps
Writing library: LAME3.99.4
Language: Russian
Default: Yes
Forced: Yes

Audio #2
ID: 3
Format: MPEG Audio
Format version: Version 1
Format profile: Layer 3
Mode: Joint stereo
Mode extension: MS Stereo
Muxing mode: Header stripping
Codec ID: A_MPEG/L3
Codec ID/Hint: MP3
Duration: 1h 40mn
Bit rate mode: Constant
Bit rate : 128 Kbps
Channel(s): 2 channels
Sampling rate: 48.0 KHz
Compression mode: Lossy
Stream size: 91.6 MiB (10%)
Title: Английский @ 128 kbps
Writing library: LAME3.99.Іi¤v[nµ Г*H
Language: English
Default: No

ForText #1
ID: 4
Format: UTF-8
Codec ID: S_TEXT/UTF8
Codec ID/Info: UTF-8 Plain Text
Title: Русский
Language: Russian
Default: Yes
Forced: No

Text #2
ID: 5
Format: UTF-8
Codec ID: S_TEXT/UTF8
Codec ID/Info: UTF-8 Plain Text
Title: Английский
Language: English
Default: No
Forced: No




   Похожие торренты   Торрент   Размер 
В этой теме нет новых непрочитанных сообщений. Обитель зла: Проклятие / Resident Evil: Damnation / Biohazard: Damnation (2012) BDRip от HQ-ViDEO | Лицензия

32 | 0

1.45 ГБ

В этой теме нет новых непрочитанных сообщений. Обитель зла: Проклятие / Resident Evil: Damnation / Biohazard: Damnation (2012) BDRip 720p | Лицензия

36 | 8

4.63 ГБ

В этой теме нет новых непрочитанных сообщений. Обитель зла: Проклятие / Resident Evil: Damnation / Biohazard: Damnation (2012) BDRip 720p от Leonardo and Scarabey | Лицензия

203 | 27

3.12 ГБ

В этой теме нет новых непрочитанных сообщений. Обитель зла: Проклятие / Resident Evil Damnation / Biohazard: Damnation (2012) HDRip | Лицензия

10 | 5

697.58 МБ

В этой теме нет новых непрочитанных сообщений. Обитель зла: Проклятие / Resident Evil: Damnation / Biohazard: Damnation (2012) HDRip | Лицензия

118 | 14

1.46 ГБ

В этой теме нет новых непрочитанных сообщений. Обитель зла: Проклятие / Resident Evil: Damnation / Biohazard: Damnation (2012) DVD9 | P | Лицензия

0 | 3

7.18 ГБ

В этой теме нет новых непрочитанных сообщений. Обитель зла: Проклятие / Resident Evil Damnation / Biohazard: Damnation (2012) HDRip | Лицензия

16 | 4

2.05 ГБ




Вы не можете начинать темы
Вы не можете отвечать на сообщения
Вы не можете редактировать свои сообщения
Вы не можете удалять свои сообщения
Вы не можете добавлять вложения

Перейти:  
Для Мосгорсуда, Роскомнадзора и рекламодателей: mosgorsud-torrent[собачка]yandex.ru
 Вход
ppkBB3cker v.2 © 2008-2014 @ PPK
[ Time : 0.041s | 15 Queries | GZIP : Off ]

cron