img image001 image001 image001 image001 image001 image001 image001 image001 image001 image001 image001 image001 image001 image001 image001

Planets Sun Sun Sun
Статистика раздачи
Автор: Снежана | Размер: 5.27 ГБ | Добавлен: 27 июл 2013
Раздают: 48    Качают: 3
Скачать торрент
Скачать торрент
Описание торрента

СообщениеДобавлено: 27 июл 2013 

#77

Страна: США
Студия: Laika Entertainment
Жанр: мультфильм, ужасы, фэнтези, комедия, приключения, семейный
Год выпуска: 2012
Продолжительность: 01:32:14

Перевод: Профессиональный (дублированный)
Русские субтитры: есть
Оригинальная аудиодорожка: английская
Режиссёр: Крис Батлер, Сэм Фелл / Chris Butler, Sam Fell
Роли озвучивали: Коди Смит-МакФи, Таккер Албрицци, Анна Кендрик, Кейси Аффлек, Кристофер Минц-Плассе, Лесли Манн, Джефф Гарлин, Илэйн Стритч, Бернард Хилл, Джоделль Ферланд
Роли дублировали: Александр Комлев, Денис Беспалый, Алексей Борзунов, Вероника Саркисова, Алексей Колган

Описание:
Норман, Паранорман. Единственная надежда полусонного городка в борьбе с полчищами нечисти. Его оружие — супер-мега-дар: умение общаться с призраками. Впрочем, мертвецы — не главная опасность, куда хуже — глупые взрослые с дробовиками наперевес.

Качество: BDRip 1080p
Контейнер: MKV
Формат 3D: Half OverUnder / Вертикальная анаморфная стереопара
Порядок ракурсов: левый ракурс первый
Видео кодек: x264
Аудио кодек: AC3
Видео: AVC / High@L4.1 / 2 pass / 23,976 fps / 1920x1080p / 6,9 Mbps / 0.139
Аудио 1: AC3 / 5.1 ch / 640 kbps / Русский дубляж BD
Аудио 2: AC3 / 5.1 ch / 640 kbps / Английский original BD
Субтитры: (softsub SRT)
- Русские Forced (включены по умолчанию)
- Русские Full
- English Full
Дополнительно: Сохранены оригинальные чаптеры как на Blu-ray
Рип от: Killbrain
----------------------------------------------------------------------------------------
Раздача от:
----------------------------------------------------------------------------------------

----------------------------------------------------------------------------------------

----------------------------------------------------------------------------------------





Общее
Уникальный идентификатор : 224042629302595673917801137486431676935 (0xA88D0A75C17FFF41A10CBF5B9DD66A07)
Полное имя : F:Скачка торрентParanorman.3D.2012.BDRip1080p.halfOU(Killbrain).mkv
Формат : Matroska
Версия формата : Version 2
Размер файла : 5,27 Гбайт
Продолжительность : 1 ч. 32 м.
Общий поток : 8182 Кбит/сек
Название фильма : ParaNorman 3D (2012) by Killbrain
Дата кодирования : UTC 2012-12-06 17:11:39
Программа кодирования : mkvmerge v5.8.0 ('No Sleep / Pillow') built on Sep 2 2012 15:37:04
Библиотека кодирования : libebml v1.2.3 + libmatroska v1.3.0

Видео
Идентификатор : 1
Формат : AVC
Формат/Информация : Advanced Video Codec
Профиль формата : High@L4.1
Параметр CABAC формата : Да
Параметр ReFrames формата : 4 кадра
Идентификатор кодека : V_MPEG4/ISO/AVC
Продолжительность : 1 ч. 32 м.
Битрейт : 6900 Кбит/сек
Ширина : 1920 пикселей
Высота : 1080 пикселей
Соотношение сторон : 16:9
Режим частоты кадров : Постоянный
Частота кадров : 23,976 кадра/сек
Цветовое пространство : YUV
Субдискретизация насыщенности : 4:2:0
Битовая глубина : 8 бит
Тип развёртки : Прогрессивная
Бит/(Пиксели*Кадры) : 0.139
Размер потока : 4,34 Гбайт (82%)
Заголовок : ParaNorman 3D (2012)
Библиотека кодирования : x264 core 128 r2216 198a7ea
Настройки программы : cabac=1 / ref=4 / deblock=1:-3:-3 / analyse=0x3:0x113 / me=umh / subme=9 / psy=1 / psy_rd=1.00:0.40 / mixed_ref=1 / me_range=16 / chroma_me=1 / trellis=2 / 8x8dct=1 / cqm=0 / deadzone=21,11 / fast_pskip=1 / chroma_qp_offset=-4 / threads=3 / lookahead_threads=1 / sliced_threads=0 / nr=0 / decimate=0 / interlaced=0 / bluray_compat=0 / constrained_intra=0 / bframes=6 / b_pyramid=2 / b_adapt=2 / b_bias=0 / direct=3 / weightb=1 / open_gop=0 / weightp=2 / keyint=240 / keyint_min=23 / scenecut=40 / intra_refresh=0 / rc_lookahead=60 / rc=2pass / mbtree=0 / bitrate=6900 / ratetol=1.0 / qcomp=0.65 / qpmin=0 / qpmax=69 / qpstep=4 / cplxblur=20.0 / qblur=0.5 / vbv_maxrate=40000 / vbv_bufsize=40000 / nal_hrd=none / frame-packing=4 / ip_ratio=1.40 / pb_ratio=1.30 / aq=1:0.70
Язык : English
Default : Да
Forced : Нет

Аудио #1
Идентификатор : 2
Формат : AC-3
Формат/Информация : Audio Coding 3
Расширение режима : CM (complete main)
Параметр Endianness формата : Big
Идентификатор кодека : A_AC3
Продолжительность : 1 ч. 32 м.
Вид битрейта : Постоянный
Битрейт : 640 Кбит/сек
Каналы : 6 каналов
Расположение каналов : Front: L C R, Side: L R, LFE
Частота : 48,0 КГц
Битовая глубина : 16 бит
Метод сжатия : С потерями
Размер потока : 422 Мбайт (8%)
Заголовок : AC3 / 5.1 ch / 640 kbps / Русский дубляж BD
Язык : Russian
Default : Да
Forced : Нет

Аудио #2
Идентификатор : 3
Формат : AC-3
Формат/Информация : Audio Coding 3
Расширение режима : CM (complete main)
Параметр Endianness формата : Big
Идентификатор кодека : A_AC3
Продолжительность : 1 ч. 32 м.
Вид битрейта : Постоянный
Битрейт : 640 Кбит/сек
Каналы : 6 каналов
Расположение каналов : Front: L C R, Side: L R, LFE
Частота : 48,0 КГц
Битовая глубина : 16 бит
Метод сжатия : С потерями
Размер потока : 422 Мбайт (8%)
Заголовок : AC3 / 5.1 ch / 640 kbps / Английский Original BD
Язык : English
Default : Нет
Forced : Нет

Текст #1
Идентификатор : 4
Формат : UTF-8
Идентификатор кодека : S_TEXT/UTF8
Идентификатор кодека/Информация : UTF-8 Plain Text
Заголовок : Forced
Язык : Russian
Default : Да
Forced : Нет

Текст #2
Идентификатор : 5
Формат : UTF-8
Идентификатор кодека : S_TEXT/UTF8
Идентификатор кодека/Информация : UTF-8 Plain Text
Заголовок : Full
Язык : Russian
Default : Нет
Forced : Нет

Текст #3
Идентификатор : 6
Формат : UTF-8
Идентификатор кодека : S_TEXT/UTF8
Идентификатор кодека/Информация : UTF-8 Plain Text
Заголовок : Full
Язык : English
Default : Нет
Forced : Нет

Меню
00:00:00.000 : :Chapter 01
00:04:55.420 : :Chapter 02
00:08:29.425 : :Chapter 03
00:11:38.864 : :Chapter 04
00:15:10.576 : :Chapter 05
00:18:10.672 : :Chapter 06
00:21:54.146 : :Chapter 07
00:26:25.500 : :Chapter 08
00:30:04.969 : :Chapter 09
00:33:56.117 : :Chapter 10
00:38:16.919 : :Chapter 11
00:43:06.542 : :Chapter 12
00:49:36.848 : :Chapter 13
00:52:46.788 : :Chapter 14
00:56:46.194 : :Chapter 15
01:01:15.963 : :Chapter 16
01:05:53.574 : :Chapter 17
01:11:51.056 : :Chapter 18
01:18:19.486 : :Chapter 19
01:25:07.393 : :Chapter 20







   Похожие торренты   Торрент   Размер 
В этой теме нет новых непрочитанных сообщений. Паранорман, или Как приручить зомби / ParaNorman (2012) BDRip 1080p от Youtracker | Лицензия

4 | 10

8.56 ГБ

В этой теме нет новых непрочитанных сообщений. Паранорман, или Как приручить зомби / ParaNorman (2012) BDRip 1080p | 3D-Video

5 | 4

7.07 ГБ

В этой теме нет новых непрочитанных сообщений. Паранорман, или Как приручить зомби / ParaNorman (2012) BDRip 720p от HQ-ViDEO | Лицензия

99 | 3

2.49 ГБ

В этой теме нет новых непрочитанных сообщений. Паранорман, или Как приручить зомби / ParaNorman (2012) BDRip 1080p

40 | 4

4.37 ГБ

В этой теме нет новых непрочитанных сообщений. Паранорман, или Как приручить зомби / ParaNorman (2012) HDRip от Youtracker | D | Лицензия

23 | 3

1.46 ГБ

В этой теме нет новых непрочитанных сообщений. Паранорман, или Как приручить зомби / ParaNorman (2012) HDRip от Youtracker | D | Лицензия

88 | 9

744.88 МБ

В этой теме нет новых непрочитанных сообщений. Паранорман, или Как приручить зомби / ParaNorman (2012) DVD9 R5 от Youtracker | D | лицензия

1 | 2

6.75 ГБ




Вы не можете начинать темы
Вы не можете отвечать на сообщения
Вы не можете редактировать свои сообщения
Вы не можете удалять свои сообщения
Вы не можете добавлять вложения

Перейти:  
Для Мосгорсуда, Роскомнадзора и рекламодателей: mosgorsud-torrent[собачка]yandex.ru
 Вход
ppkBB3cker v.2 © 2008-2014 @ PPK
[ Time : 0.030s | 14 Queries | GZIP : Off ]

Торрент трекер RUTOR.IN, Не можете зайти на rutor.org? Какой новый адрес рутор? Какое зеркало рутор? Не работает rutor.org и зеркала? Тогда наш торрент специально для вас. Rutor.in неофициальное зеркало rutor. В случае если у Вас заблокирован rutor или вдруг Вы не можете на него зайти, то Вы без труда сможете скачать бесплатно и без рекламы последние новинки кино, игр, сериалов и прочего у нас, на Rutor.in. Не нужно использовать прокси, чтобы зайти на рутор, достаточно воспользоваться нашим ресурсом. Все новые фильмы, игры, сериалы, книги и музыка за 2013 и 2014 годы через торрент бесплатно. Скачивайте фильмы в хорошем качестве, игры для пк, xbox, playstation без регистрации. У нас вы найдете новые Зарубежные сериалы и Русские сериалы 2013, 2014, 2015 годов. Оставайтесь с нами, качайте любимые фильмы, игры, сериалы, книги и музыку.