img image001 image001 image001 image001 image001 image001 image001 image001 image001 image001 image001 image001 image001 image001 image001

Planets Sun Sun Sun
Статистика раздачи
Автор: Снежана | Размер: 213.04 МБ | Добавлен: 27 июл 2013
Раздают: 19    Качают: 3
Скачать торрент
Скачать торрент
Описание торрента

СообщениеДобавлено: 27 июл 2013 

#77

Информация о фильме
Название: Легенда о МорДу
Оригинальное название: The Legend of Mor'Du
Год выхода: 2012
Жанр: Короткометражный, мультфильм, легенда
Режиссер: Брайан Ларсен
В ролях: Джули Уолтерс, Стив Пурселл, Каллум О’Нилл
О фильме:
Легенда о королевстве МорДу рассказанная ведьмой из мультфильма Храбрая сердцем.

Страна: США, Pixar Animation Studios
Продолжительность: 00:06:52
Перевод: Дублированный, любительский одноголосый, любительский двухголосый
Субтитры: Русские, украинские, английские, французские, испанские
Дата релиза: 07.12.2012

Файл
Кодек: H.264
Качество: BDRip (AVC) (Blu-Ray Remux (1080p))
Видео: MPEG-4 AVC, 2565 Kбит/с, 1024x426, 23.976 кадр/с
Звук:
Аудио #1: 48.0 KHz, AC3, 6 ch, 448 Kbps - Дубляж BD CEE
Аудио #2: 48.0 KHz, AC3, 6 ch, 448 Kbps - Любительский одноголосый -Доцент-
Аудио #3: 48.0 KHz, AC3, 6 ch, 448 Kbps - Любительский двухголосый (РГ Мультфильмы) kis-natella и rtys
Аудио #4: 48.0 KHz, AC3, 6 ch, 448 Kbps - Английский
Cубтитры: Русские (BD CEE), Русские (-Доцент-), Украинские (BD CEE), English, English (SDH), French, Spanish

Общее
Уникальный идентификатор : 211455128887233312701786446136205997798 (0x9F14C6C633A511A08522CD16285D76E6)
Полное имя : G:фильмыLegenda.o.MorDu.2012.x264.BDRip.(AVC).ExKinoRay.mkv
Формат : Matroska
Версия формата : Version 2
Размер файла : 213 Мбайт
Продолжительность : 6 м. 51 с.
Общий поток : 4338 Кбит/сек
Название фильма : Legenda.o.MorDu.2012.x264.BDRip.(AVC).ExKinoRay
Дата кодирования : UTC 2012-12-06 20:21:29
Программа кодирования : mkvmerge v4.0.0 ('The Stars were mine') сборка от Jun 6 2010 16:18:42
Библиотека кодирования : libebml v1.0.0 + libmatroska v1.0.0

Видео
Идентификатор : 1
Формат : AVC
Формат/Информация : Advanced Video Codec
Профиль формата : High@L4.1
Параметр CABAC формата : Да
Параметр ReFrames формата : 8 кадров
Идентификатор кодека : V_MPEG4/ISO/AVC
Продолжительность : 6 м. 51 с.
Битрейт : 2562 Кбит/сек
Ширина : 1024 пикселя
Высота : 426 пикселей
Соотношение сторон : 2,40:1
Частота кадров : 23,976 кадра/сек
Цветовое пространство : YUV
Субдискретизация насыщенности : 4:2:0
Битовая глубина : 8 бит
Тип развёртки : Прогрессивная
Бит/(Пиксели*Кадры) : 0.245
Размер потока : 121 Мбайт (57%)
Заголовок : Rip by Enigma-Vladislav71
Библиотека кодирования : x264 core 92 r1510 33d382a
Настройки программы : cabac=1 / ref=8 / deblock=1:-2:-2 / analyse=0x3:0x133 / me=umh / subme=10 / psy=1 / psy_rd=1.00:0.00 / mixed_ref=1 / me_range=48 / chroma_me=1 / trellis=2 / 8x8dct=1 / cqm=0 / deadzone=21,11 / fast_pskip=0 / chroma_qp_offset=-2 / threads=3 / sliced_threads=0 / nr=0 / decimate=0 / interlaced=0 / constrained_intra=0 / bframes=8 / b_pyramid=2 / b_adapt=2 / b_bias=0 / direct=3 / wpredb=1 / wpredp=2 / keyint=240 / keyint_min=23 / scenecut=40 / intra_refresh=0 / rc=2pass / mbtree=0 / bitrate=2562 / ratetol=1.0 / qcomp=0.60 / qpmin=10 / qpmax=51 / qpstep=4 / cplxblur=20.0 / qblur=0.5 / ip_ratio=1.40 / pb_ratio=1.30 / aq=1:1.00
Язык : English
Default : Нет
Forced : Нет

Аудио #1
Идентификатор : 2
Формат : AC-3
Формат/Информация : Audio Coding 3
Расширение режима : CM (complete main)
Идентификатор кодека : A_AC3
Продолжительность : 6 м. 51 с.
Вид битрейта : Постоянный
Битрейт : 448 Кбит/сек
Каналы : 6 каналов
Расположение каналов : Front: L C R, Side: L R, LFE
Частота : 48,0 КГц
Битовая глубина : 16 бит
Метод сжатия : С потерями
Размер потока : 22,0 Мбайт (10%)
Заголовок : Дубляж BD CEE
Язык : Russian
Default : Да
Forced : Нет

Аудио #2
Идентификатор : 3
Формат : AC-3
Формат/Информация : Audio Coding 3
Расширение режима : CM (complete main)
Идентификатор кодека : A_AC3
Продолжительность : 6 м. 51 с.
Вид битрейта : Постоянный
Битрейт : 448 Кбит/сек
Каналы : 6 каналов
Расположение каналов : Front: L C R, Side: L R, LFE
Частота : 48,0 КГц
Битовая глубина : 16 бит
Метод сжатия : С потерями
Размер потока : 22,0 Мбайт (10%)
Заголовок : Любительский одноголосый -Доцент-
Язык : Russian
Default : Нет
Forced : Нет

Аудио #3
Идентификатор : 4
Формат : AC-3
Формат/Информация : Audio Coding 3
Расширение режима : CM (complete main)
Идентификатор кодека : A_AC3
Продолжительность : 6 м. 51 с.
Вид битрейта : Постоянный
Битрейт : 448 Кбит/сек
Каналы : 6 каналов
Расположение каналов : Front: L C R, Side: L R, LFE
Частота : 48,0 КГц
Битовая глубина : 16 бит
Метод сжатия : С потерями
Размер потока : 22,0 Мбайт (10%)
Заголовок : Любительский двухголосый (РГ Мультфильмы) kis-natella и rtys
Язык : Russian
Default : Нет
Forced : Нет

Аудио #4
Идентификатор : 5
Формат : AC-3
Формат/Информация : Audio Coding 3
Расширение режима : CM (complete main)
Идентификатор кодека : A_AC3
Продолжительность : 6 м. 51 с.
Вид битрейта : Постоянный
Битрейт : 448 Кбит/сек
Каналы : 6 каналов
Расположение каналов : Front: L C R, Side: L R, LFE
Частота : 48,0 КГц
Битовая глубина : 16 бит
Метод сжатия : С потерями
Размер потока : 22,0 Мбайт (10%)
Заголовок : Английский
Язык : English
Default : Нет
Forced : Нет

Текст #1
Идентификатор : 6
Формат : UTF-8
Идентификатор кодека : S_TEXT/UTF8
Идентификатор кодека/Информация : UTF-8 Plain Text
Заголовок : [BD CEE]
Язык : Russian
Default : Нет
Forced : Нет

Текст #2
Идентификатор : 7
Формат : UTF-8
Идентификатор кодека : S_TEXT/UTF8
Идентификатор кодека/Информация : UTF-8 Plain Text
Заголовок : [-Доцент-]
Язык : Russian
Default : Нет
Forced : Нет

Текст #3
Идентификатор : 8
Формат : UTF-8
Идентификатор кодека : S_TEXT/UTF8
Идентификатор кодека/Информация : UTF-8 Plain Text
Заголовок : Ukrainian [BD CEE]
Default : Нет
Forced : Нет

Текст #4
Идентификатор : 9
Формат : UTF-8
Идентификатор кодека : S_TEXT/UTF8
Идентификатор кодека/Информация : UTF-8 Plain Text
Язык : English
Default : Нет
Forced : Нет

Текст #5
Идентификатор : 10
Формат : UTF-8
Идентификатор кодека : S_TEXT/UTF8
Идентификатор кодека/Информация : UTF-8 Plain Text
Заголовок : (SDH)
Язык : English
Default : Нет
Forced : Нет

Текст #6
Идентификатор : 11
Формат : UTF-8
Идентификатор кодека : S_TEXT/UTF8
Идентификатор кодека/Информация : UTF-8 Plain Text
Язык : Finnish
Default : Нет
Forced : Нет

Текст #7
Идентификатор : 12
Формат : UTF-8
Идентификатор кодека : S_TEXT/UTF8
Идентификатор кодека/Информация : UTF-8 Plain Text
Язык : Spanish
Default : Нет
Forced : Нет

Меню
00:00:00.000 : en:Chapter 1
00:00:50.968 : en:Chapter 2
00:02:16.303 : en:Chapter 3
00:04:07.289 : en:Chapter 4
00:05:37.546 : en:Chapter 5


Семпл


Релиз от:

Авторы релиза:



   Похожие торренты   Торрент   Размер 
В этой теме нет новых непрочитанных сообщений. Легенда о МорДу / The Legend of Mor'Du (2012) BDRip от ExKinoRay

7 | 1

84.93 МБ

В этой теме нет новых непрочитанных сообщений. Легенда о МорДу / The Legend of Mor'Du (2012) BDRip 1080p от ExKinoRay

23 | 2

566.06 МБ

В этой теме нет новых непрочитанных сообщений. Я легенда / I Am Legend (2007) BDRip-AVC от ExKinoRay

861 | 70

3.82 ГБ

В этой теме нет новых непрочитанных сообщений. Легенда о Костоломе / Легенда о Костяном Драконе / Легенда о Костобое / Legend of the Boneknapper Dragon (2010) BDRip от HQCLUB

20 | 33

451.83 МБ

В этой теме нет новых непрочитанных сообщений. Легенда Зорро / The Legend of Zorro (2005) BDRip-AVC от ExKinoRay

4 | 3

2.18 ГБ

В этой теме нет новых непрочитанных сообщений. Легенда / Legend (2015) BDRip 1080p от ExKinoRay | iTunes Russia

2189 | 121

9.01 ГБ

В этой теме нет новых непрочитанных сообщений. Тарзан. Легенда / The Legend of Tarzan (2016) BDRip от ExKinoRay | iTunes

303 | 49

2.14 ГБ




Вы не можете начинать темы
Вы не можете отвечать на сообщения
Вы не можете редактировать свои сообщения
Вы не можете удалять свои сообщения
Вы не можете добавлять вложения

Перейти:  
Для Мосгорсуда, Роскомнадзора и рекламодателей: mosgorsud-torrent[собачка]yandex.ru
 Вход
ppkBB3cker v.2 © 2008-2014 @ PPK
[ Time : 5.107s | 16 Queries | GZIP : Off ]

Торрент трекер RUTOR.IN, Не можете зайти на rutor.org? Какой новый адрес рутор? Какое зеркало рутор? Не работает rutor.org и зеркала? Тогда наш торрент специально для вас. Rutor.in неофициальное зеркало rutor. В случае если у Вас заблокирован rutor или вдруг Вы не можете на него зайти, то Вы без труда сможете скачать бесплатно и без рекламы последние новинки кино, игр, сериалов и прочего у нас, на Rutor.in. Не нужно использовать прокси, чтобы зайти на рутор, достаточно воспользоваться нашим ресурсом. Все новые фильмы, игры, сериалы, книги и музыка за 2013 и 2014 годы через торрент бесплатно. Скачивайте фильмы в хорошем качестве, игры для пк, xbox, playstation без регистрации. У нас вы найдете новые Зарубежные сериалы и Русские сериалы 2013, 2014, 2015 годов. Оставайтесь с нами, качайте любимые фильмы, игры, сериалы, книги и музыку.