img image001 image001 image001 image001 image001 image001 image001 image001 image001 image001 image001 image001 image001 image001 image001

Planets Sun Sun Sun
Статистика раздачи
Автор: Снежана | Размер: 1.11 ГБ | Добавлен: 27 июл 2013
Раздают: 60    Качают: 2
Скачать торрент
Скачать торрент
Описание торрента

СообщениеДобавлено: 27 июл 2013 

#77

Информация о фильме
Название : Бен 10: Крушение пришельцев
Оригинальное название : Ben 10: Destroy All Aliens
Год выхода : 2012
Жанр : мультфильм, фантастика, боевик, приключения, семейный
Режиссер : Виктор Кук / Victor Cook
В ролях : Ди Брэдли Бейкер / Dee Bradley Baker , Пол Айдинг / Paul Ayding , Дэйв Фенной / Dave Fenna , Роберт Дэвид Холл / Robert David Hall , Рихард Ховиц / Richard Hovits , Бет Литтлфорд / Bet Littlford , Ричард МакГонагл / Richard Makgonagl , Дон МакМанус / Don Makmanus , Дуайт Шульц / Dwight Schultz , Мэган Смит / Megan Smith

О фильме: Десятилетний Бен Теннисон возвращается домой с летних каникул и в его обычной жизни происходит полная неразбериха. Его отчитывает учитель, пристают хулиганы, наказывают родители. Плюс ко всему родители не разрешают Бену поехать с дедушкой Максом в долгожданную поездку загород. Бен сбегает от всех проблем в самый дальний уголок галактики и принимает участие в военной программе Тотального погружения в Пришельцев. Бена отправляют обратно на землю теперь в облике пришельца.



Страна : США, Сингапур
Выпущено : Cartoon Network
Продолжительность : 01:08:05
Перевод : Профессиональный (дублированный)
Дата релиза: 07.12.2012

Файл
Кодек: H264
Качество: HDTVRip (AVC)
Видео: 1700 Кбит/с, 1024x576
Звук: Звук 1 : AC-3, 48 000 Hz, ~192 Kbps, 2ch stereo (русский)
Звук 2 : AC-3, 48 000 Hz, ~448 Kbps, 6ch (Front: L C R, Side: L R, LFE) (английский)

Семпл
Уникальный идентификатор : 239472332151314942165847417522306610662 (0xB428B18B75DACC29B116B7328FBAF5E6)
Полное имя : G:фильмыBen.10.Krushenie.prisheljcev.2012.x264.HDTVRip.(AVC).ExKinoRay.mkv
Формат : Matroska
Версия формата : Version 2
Размер файла : 1,11 Гбайт
Продолжительность : 1 ч. 8 м.
Общий поток : 2341 Кбит/сек
Название фильма : Ben.10.Krushenie.prisheljcev.2012.x264.HDTVRip.(AVC).ExKinoRay
Дата кодирования : UTC 2012-12-06 07:34:19
Программа кодирования : mkvmerge v4.0.0 ('The Stars were mine') сборка от Jun 6 2010 16:18:42
Библиотека кодирования : libebml v1.0.0 + libmatroska v1.0.0
Видео
Идентификатор : 1
Формат : AVC
Формат/Информация : Advanced Video Codec
Профиль формата : High@L4.1
Параметр CABAC формата : Да
Параметр ReFrames формата : 8 кадров
Идентификатор кодека : V_MPEG4/ISO/AVC
Продолжительность : 1 ч. 8 м.
Битрейт : 1700 Кбит/сек
Ширина : 1024 пикселя
Высота : 576 пикселей
Соотношение сторон : 16:9
Частота кадров : 23,976 кадра/сек
Цветовое пространство : YUV
Субдискретизация насыщенности : 4:2:0
Битовая глубина : 8 бит
Тип развёртки : Прогрессивная
Бит/(Пиксели*Кадры) : 0.120
Размер потока : 805 Мбайт (71%)
Заголовок : Rip by Enigma-Vladislav71
Библиотека кодирования : x264 core 92 r1510 33d382a
Настройки программы : cabac=1 / ref=8 / deblock=1:-2:-2 / analyse=0x3:0x133 / me=umh / subme=10 / psy=1 / psy_rd=1.00:0.00 / mixed_ref=1 / me_range=48 / chroma_me=1 / trellis=2 / 8x8dct=1 / cqm=0 / deadzone=21,11 / fast_pskip=0 / chroma_qp_offset=-2 / threads=6 / sliced_threads=0 / nr=0 / decimate=0 / interlaced=0 / constrained_intra=0 / bframes=8 / b_pyramid=2 / b_adapt=2 / b_bias=0 / direct=3 / wpredb=1 / wpredp=2 / keyint=240 / keyint_min=23 / scenecut=40 / intra_refresh=0 / rc=2pass / mbtree=0 / bitrate=1700 / ratetol=1.0 / qcomp=0.60 / qpmin=10 / qpmax=51 / qpstep=4 / cplxblur=20.0 / qblur=0.5 / ip_ratio=1.40 / pb_ratio=1.30 / aq=1:1.00
Default : Да
Forced : Нет
Аудио #1
Идентификатор : 2
Формат : AC-3
Формат/Информация : Audio Coding 3
Расширение режима : CM (complete main)
Идентификатор кодека : A_AC3
Продолжительность : 1 ч. 8 м.
Вид битрейта : Постоянный
Битрейт : 192 Кбит/сек
Каналы : 2 канала
Расположение каналов : Front: L R
Частота : 48,0 КГц
Битовая глубина : 16 бит
Метод сжатия : С потерями
Размер потока : 93,4 Мбайт (8%)
Язык : Russian
Default : Да
Forced : Нет
Аудио #2
Идентификатор : 3
Формат : AC-3
Формат/Информация : Audio Coding 3
Расширение режима : CM (complete main)
Идентификатор кодека : A_AC3
Продолжительность : 1 ч. 8 м.
Вид битрейта : Постоянный
Битрейт : 448 Кбит/сек
Каналы : 6 каналов
Расположение каналов : Front: L C R, Side: L R, LFE
Частота : 48,0 КГц
Битовая глубина : 16 бит
Метод сжатия : С потерями
Размер потока : 218 Мбайт (19%)
Язык : English
Default : Нет
Forced : Нет






Релиз от:

Авторы релиза:



   Похожие торренты   Торрент   Размер 
В этой теме нет новых непрочитанных сообщений. Бен 10: Крушение пришельцев / Ben 10: Destroy All Aliens (2012) HDTVRip от ExKinoRay | D

12 | 1

1.02 ГБ

В этой теме нет новых непрочитанных сообщений. Бен 10: Крушение пришельцев / Ben 10: Destroy All Aliens (2012) HDTVRip-AVC 720p

13 | 2

1.75 ГБ

В этой теме нет новых непрочитанных сообщений. Бен 10: Крушение пришельцев / Ben 10: Destroy All Aliens (2012) DVB

5 | 1

1.3 ГБ

В этой теме нет новых непрочитанных сообщений. Бен 10: Крушение инопланетян / Ben 10: Destroy All Aliens (2012) SATRip

20 | 2

744.54 МБ

В этой теме нет новых непрочитанных сообщений. Монстры против Пришельцев - 3D / Monsters vs Aliens - 3D (2009) HDRip от ExKinoRay | 3D-video

21 | 4

1.35 ГБ

В этой теме нет новых непрочитанных сообщений. Ковбои против пришельцев / Cowboys & Aliens (2011) BDRip-AVC от ExKinoRay | Расширенная версия

198 | 11

4.03 ГБ

В этой теме нет новых непрочитанных сообщений. Discovery: Мумии пришельцев / Discovery: Aliens mummies (2012) HDTVRip | P1

478 | 78

652.26 МБ




Вы не можете начинать темы
Вы не можете отвечать на сообщения
Вы не можете редактировать свои сообщения
Вы не можете удалять свои сообщения
Вы не можете добавлять вложения

Перейти:  
Для Мосгорсуда, Роскомнадзора и рекламодателей: mosgorsud-torrent[собачка]yandex.ru
 Вход
ppkBB3cker v.2 © 2008-2014 @ PPK
[ Time : 0.050s | 15 Queries | GZIP : Off ]

Торрент трекер RUTOR.IN, Не можете зайти на rutor.org? Какой новый адрес рутор? Какое зеркало рутор? Не работает rutor.org и зеркала? Тогда наш торрент специально для вас. Rutor.in неофициальное зеркало rutor. В случае если у Вас заблокирован rutor или вдруг Вы не можете на него зайти, то Вы без труда сможете скачать бесплатно и без рекламы последние новинки кино, игр, сериалов и прочего у нас, на Rutor.in. Не нужно использовать прокси, чтобы зайти на рутор, достаточно воспользоваться нашим ресурсом. Все новые фильмы, игры, сериалы, книги и музыка за 2013 и 2014 годы через торрент бесплатно. Скачивайте фильмы в хорошем качестве, игры для пк, xbox, playstation без регистрации. У нас вы найдете новые Зарубежные сериалы и Русские сериалы 2013, 2014, 2015 годов. Оставайтесь с нами, качайте любимые фильмы, игры, сериалы, книги и музыку.
cron