img image001 image001 image001 image001 image001 image001 image001 image001 image001 image001 image001 image001 image001 image001 image001

Planets Sun Sun Sun
Статистика раздачи
Автор: Снежана | Размер: 4.37 ГБ | Добавлен: 27 июл 2013
Раздают: 40    Качают: 4
Скачать торрент
Скачать торрент
Описание торрента

СообщениеДобавлено: 27 июл 2013 

#77

Информация о фильме
Название: Паранорман, или Как приручить зомби
Оригинальное название: ParaNorman
Год выхода: 2012
Жанр: мультфильм, ужасы, фэнтези, комедия, приключения, семейный
Режиссер: Крис Батлер, Сэм Фелл
В ролях: Коди Смит-МакФи, Таккер Албрицци, Анна Кендрик, Кейси Аффлек, Кристофер Минц-Плассе, Лесли Манн, Джефф Гарлин, Илэйн Стритч, Бернард Хилл, Джоделль Ферланд

О фильме: Норман, Паранорман. Единственная надежда полусонного городка в борьбе с полчищами нечисти. Его оружие — супер-мега-дар: умение общаться с призраками. Впрочем, мертвецы — не главная опасность, куда хуже — глупые взрослые с дробовиками наперевес.



Выпущено: Laika Entertainment
Продолжительность: 01:32:15
Перевод: Дублированный (Лицензия BD-EUR)

Файл
Кодек: x264
Качество: BDRip (источник: Blu-ray Disc)
Видео: 1920x800 (2,40:1), 23.976 fps, 5889 kbps
Аудио #1: AC-3, 6 ch, 448 kbps (Rus)
Аудио #2: AC-3, 6 ch, 448 kbps (Eng)
Субтитры: Русские (форс,полные), Английские
Скачать: сэмпл

Скриншоты

Общее
Уникальный идентификатор : 201228896003730771968809938400208178563 (0x97634690EE1785D09A5237994A5B4D83)
Полное имя : ParaNorman.2012.BDRip.1080p.Rus.Eng.mkv
Формат : Matroska
Версия формата : Version 2
Размер файла : 4,37 Гбайт
Продолжительность : 1 ч. 32 м.
Общий поток : 6786 Кбит/сек
Название фильма : Паранорман, или Как приручить зомби / ParaNorman (2012)
Дата кодирования : UTC 2012-12-07 14:53:30
Программа кодирования : mkvmerge v5.8.0 ('No Sleep / Pillow') built on Sep 2 2012 15:37:04
Библиотека кодирования : libebml v1.2.3 + libmatroska v1.3.0

Видео
Идентификатор : 1
Формат : AVC
Формат/Информация : Advanced Video Codec
Профиль формата : High@L4.1
Параметр CABAC формата : Да
Параметр ReFrames формата : 5 кадров
Идентификатор кодека : V_MPEG4/ISO/AVC
Продолжительность : 1 ч. 32 м.
Битрейт : 5889 Кбит/сек
Ширина : 1920 пикселей
Высота : 800 пикселей
Соотношение сторон : 2,40:1
Частота кадров : 23,976 кадра/сек
Цветовое пространство : YUV
Субдискретизация насыщенности : 4:2:0
Битовая глубина : 8 бит
Тип развёртки : Прогрессивная
Бит/(Пиксели*Кадры) : 0.160
Размер потока : 3,71 Гбайт (85%)
Заголовок : Release by AlexKa
Библиотека кодирования : x264 core 129 r2230 1cffe9f
Настройки программы : cabac=1 / ref=5 / deblock=1:0:0 / analyse=0x3:0x133 / me=umh / subme=10 / psy=1 / psy_rd=1.00:0.00 / mixed_ref=1 / me_range=32 / chroma_me=1 / trellis=2 / 8x8dct=1 / cqm=0 / deadzone=21,11 / fast_pskip=0 / chroma_qp_offset=-2 / threads=12 / lookahead_threads=2 / sliced_threads=0 / nr=0 / decimate=0 / interlaced=0 / bluray_compat=0 / constrained_intra=0 / bframes=5 / b_pyramid=2 / b_adapt=2 / b_bias=0 / direct=3 / weightb=1 / open_gop=0 / weightp=2 / keyint=240 / keyint_min=23 / scenecut=40 / intra_refresh=0 / rc=2pass / mbtree=0 / bitrate=5889 / ratetol=1.0 / qcomp=0.60 / qpmin=0 / qpmax=69 / qpstep=4 / cplxblur=20.0 / qblur=0.5 / ip_ratio=1.40 / pb_ratio=1.30 / aq=1:1.00
Язык : English

Аудио #1
Идентификатор : 2
Формат : AC-3
Формат/Информация : Audio Coding 3
Расширение режима : CM (complete main)
Идентификатор кодека : A_AC3
Продолжительность : 1 ч. 32 м.
Вид битрейта : Постоянный
Битрейт : 448 Кбит/сек
Каналы : 6 каналов
Расположение каналов : Front: L C R, Side: L R, LFE
Частота : 48,0 КГц
Битовая глубина : 16 бит
Метод сжатия : С потерями
Размер потока : 296 Мбайт (7%)
Заголовок : Rus
Язык : Russian

Аудио #2
Идентификатор : 3
Формат : AC-3
Формат/Информация : Audio Coding 3
Расширение режима : CM (complete main)
Идентификатор кодека : A_AC3
Продолжительность : 1 ч. 32 м.
Вид битрейта : Постоянный
Битрейт : 448 Кбит/сек
Каналы : 6 каналов
Расположение каналов : Front: L C R, Side: L R, LFE
Частота : 48,0 КГц
Битовая глубина : 16 бит
Метод сжатия : С потерями
Размер потока : 296 Мбайт (7%)
Заголовок : Eng
Язык : English

Текст #1
Идентификатор : 4
Формат : UTF-8
Идентификатор кодека : S_TEXT/UTF8
Идентификатор кодека/Информация : UTF-8 Plain Text
Заголовок : Rus forced
Язык : Russian

Текст #2
Идентификатор : 5
Формат : UTF-8
Идентификатор кодека : S_TEXT/UTF8
Идентификатор кодека/Информация : UTF-8 Plain Text
Заголовок : Rus
Язык : Russian

Текст #3
Идентификатор : 6
Формат : UTF-8
Идентификатор кодека : S_TEXT/UTF8
Идентификатор кодека/Информация : UTF-8 Plain Text
Заголовок : Eng
Язык : English

Меню
00:00:00.000 : :Chapter 01
00:04:55.420 : :Chapter 02
00:08:29.426 : :Chapter 03
00:11:38.865 : :Chapter 04
00:15:10.576 : :Chapter 05
00:18:10.673 : :Chapter 06
00:21:54.146 : :Chapter 07
00:26:25.501 : :Chapter 08
00:30:04.970 : :Chapter 09
00:33:56.117 : :Chapter 10
00:38:16.920 : :Chapter 11
00:43:06.542 : :Chapter 12
00:49:36.849 : :Chapter 13
00:52:46.789 : :Chapter 14
00:56:46.194 : :Chapter 15
01:01:15.964 : :Chapter 16
01:05:53.575 : :Chapter 17
01:11:51.057 : :Chapter 18
01:18:19.486 : :Chapter 19
01:25:07.394 : :Chapter 20
x264 [info]: frame I:1130 Avg QP:13.36 size:214277
x264 [info]: frame P:32335 Avg QP:16.18 size: 65039
x264 [info]: frame B:99247 Avg QP:17.59 size: 17423



   Похожие торренты   Торрент   Размер 
В этой теме нет новых непрочитанных сообщений. Паранорман, или Как приручить зомби / ParaNorman (2012) BDRip 1080p | Лицензия

3 | 2

6.9 ГБ

В этой теме нет новых непрочитанных сообщений. Паранорман, или Как приручить зомби / ParaNorman (2012) BDRip 1080p | 3D-Video

5 | 4

7.07 ГБ

В этой теме нет новых непрочитанных сообщений. Паранорман, или Как приручить зомби / ParaNorman (2012) BDRip 1080p от Youtracker | 3D-Video

48 | 3

5.27 ГБ

В этой теме нет новых непрочитанных сообщений. Паранорман, или Как приручить зомби / ParaNorman (2012) BDRip 1080p [Hi10P] от FREEISLAND

3 | 3

2.91 ГБ

В этой теме нет новых непрочитанных сообщений. Паранорман, или Как приручить зомби / ParaNorman (2012) BDRip 1080p от Youtracker | Лицензия

4 | 10

8.56 ГБ

В этой теме нет новых непрочитанных сообщений. Паранорман, или Как приручить зомби / ParaNorman (2012) BDRemux 1080p

2 | 4

23.29 ГБ

В этой теме нет новых непрочитанных сообщений. Паранорман, или Как приручить зомби / ParaNorman (2012) BDRip от HELLYWOOD

51 | 6

1.45 ГБ




Вы не можете начинать темы
Вы не можете отвечать на сообщения
Вы не можете редактировать свои сообщения
Вы не можете удалять свои сообщения
Вы не можете добавлять вложения

Перейти:  
Для Мосгорсуда, Роскомнадзора и рекламодателей: mosgorsud-torrent[собачка]yandex.ru
 Вход
ppkBB3cker v.2 © 2008-2014 @ PPK
[ Time : 0.023s | 16 Queries | GZIP : Off ]

Торрент трекер RUTOR.IN, Не можете зайти на rutor.org? Какой новый адрес рутор? Какое зеркало рутор? Не работает rutor.org и зеркала? Тогда наш торрент специально для вас. Rutor.in неофициальное зеркало rutor. В случае если у Вас заблокирован rutor или вдруг Вы не можете на него зайти, то Вы без труда сможете скачать бесплатно и без рекламы последние новинки кино, игр, сериалов и прочего у нас, на Rutor.in. Не нужно использовать прокси, чтобы зайти на рутор, достаточно воспользоваться нашим ресурсом. Все новые фильмы, игры, сериалы, книги и музыка за 2013 и 2014 годы через торрент бесплатно. Скачивайте фильмы в хорошем качестве, игры для пк, xbox, playstation без регистрации. У нас вы найдете новые Зарубежные сериалы и Русские сериалы 2013, 2014, 2015 годов. Оставайтесь с нами, качайте любимые фильмы, игры, сериалы, книги и музыку.