img image001 image001 image001 image001 image001 image001 image001 image001 image001 image001 image001 image001 image001 image001 image001

Planets Sun Sun Sun
Статистика раздачи
Автор: Снежана | Размер: 1.59 ГБ | Добавлен: 27 июл 2013
Раздают: 28    Качают: 7
Скачать торрент
Скачать торрент
Описание торрента

СообщениеДобавлено: 27 июл 2013 

#77

Информация о фильме

Название : Лерой и Стич
Оригинальное название : Leroy & Stitch
Год выхода : 2006
Жанр : мультфильм, фантастика, приключения, семейный
Режиссеры : Тони Крэйг, Роберт Ганнавей
Роли озвучивали : Дэйви Чейз, Крис Сандерс, Дэвид Огден Стайерз, Кевин МакДональд, Тиа Каррере, Кевин Майкл Ричардсон, Роб Полсен, Джефф Беннетт, Зои Колдуэлл, Боб Голдтуэйт



Описание : Джамбо, Пликли и Стич начинают новую жизнь. Джамбо улетает проводить исследования в своей Лаборатории Злого Гения, Пликли отправляется преподавать «Землеведение» в Общественном Колледже Галактического Альянса, а Стич готовится стать капитаном Большого Красного Крейсера БКК-9000.
Лило очень не хочет, чтобы друзья покидали Землю, но понимает, что отпуская их, она делится с ними силой Алоха, и обязательно получит ее назад. Но проходит не так много времени и друзья вновь собираются вместе, т. к. доктор Хамстервиль сбежал из межгалактической тюрьмы, клонировал точную копию Cтича и назвал двойника Лерой. И таких злобных двойников скоро будет целая армия. С этой армией доктор собирается завоевать Вселенную…
Страна : США
Производство : Walt Disney Television Animation
Продолжительность : 01:12:43
Перевод 1 : Профессиональный (Дублированный)
Перевод 2 : Профессиональный (Многоголосый , закадровый)

Релиз :
Файл
Формат видео : AVI
Качество : DVDRip

Видео : DivX 5 (H.263), 720x400 (16:9), 23.976 fps, ~2098 kbps avg, 0.304 bit/pixel
Аудио 1 : Русский, MP3, 48.0 kHz, 2 ch, ~128 kbps (Дублированный)
Аудио 2 : Русский, AC3, 48.0 kHz, 6 ch, ~448 kbps (Многоголосый , закадровый)
Аудио 3 : Английский, AC3, 48.0 kHz, 6 ch, ~448 kbps (Оригинал)
Субтитры : нет






Complete name : Лерой и Стич . Leroy & Stitch (2006) DVDRip от Stranik 2.0 . D.avi
Format : AVI
Format/Info : Audio Video Interleave
Format profile : OpenDML
File size : 1.59 GiB
Duration : 1h 12mn
Overall bit rate : 3 129 Kbps
Writing application : AVI-Mux GUI 1.17.8, Aug 30 2008 12:36:58

Video #0
ID : 0
Format : MPEG-4 Visual
Format profile : Advanced Simple@L5
Format settings, BVOP : Yes
Format settings, QPel : No
Format settings, GMC : No warppoints
Format settings, Matrix : Default (H.263)
Muxing mode : Packed bitstream
Codec ID : DX50
Codec ID/Hint : DivX 5
Duration : 1h 12mn
Bit rate : 2 098 Kbps
Width : 720 pixels
Height : 400 pixels
Display aspect ratio : 16:9
Frame rate : 23.976 fps
Color space : YUV
Chroma subsampling : 4:2:0
Bit depth : 8 bits
Scan type : Progressive
Compression mode : Lossy
Bits/(Pixel*Frame) : 0.304
Stream size : 1.07 GiB (67%)
Writing library : XviD 1.2.1 (UTC 2008-12-04)

Audio #1
ID : 1
Format : MPEG Audio
Format version : Version 1
Format profile : Layer 3
Codec ID : 55
Codec ID/Hint : MP3
Duration : 1h 12mn
Bit rate mode : Constant
Bit rate : 128 Kbps
Channel(s) : 2 channels
Sampling rate : 48.0 KHz
Compression mode : Lossy
Stream size : 66.6 MiB (4%)
Alignment : Aligned on interleaves
Interleave, duration : 305 ms (7.31 video frames)
Interleave, preload duration : 216 ms
Title : Дублированный

Audio #2
ID : 2
Format : AC-3
Format/Info : Audio Coding 3
Mode extension : CM (complete main)
Codec ID : 2000
Duration : 1h 12mn
Bit rate mode : Constant
Bit rate : 448 Kbps
Channel(s) : 6 channels
Channel positions : Front: L C R, Side: L R, LFE
Sampling rate : 48.0 KHz
Bit depth : 16 bits
Compression mode : Lossy
Stream size : 233 MiB (14%)
Alignment : Aligned on interleaves
Interleave, duration : 64 ms (1.53 video frames)
Interleave, preload duration : 192 ms
Title : Многоголосый

Audio #3
ID : 3
Format : AC-3
Format/Info : Audio Coding 3
Mode extension : CM (complete main)
Codec ID : 2000
Duration : 1h 12mn
Bit rate mode : Constant
Bit rate : 448 Kbps
Channel(s) : 6 channels
Channel positions : Front: L C R, Side: L R, LFE
Sampling rate : 48.0 KHz
Bit depth : 16 bits
Compression mode : Lossy
Stream size : 233 MiB (14%)
Alignment : Aligned on interleaves
Interleave, duration : 64 ms (1.53 video frames)
Interleave, preload duration : 192 ms
Title : Английский



Время раздачи с 7.00 до 00.00 по Москве ( пока не появятся другие сиды ) .





   Похожие торренты   Торрент   Размер 
В этой теме нет новых непрочитанных сообщений. Лерой и Стич / Leroy & Stitch (2006) WEB-DL-1080p от Stranik 2.0 | D

13 | 3

3.1 ГБ

В этой теме нет новых непрочитанных сообщений. Лерой и Стич / Leroy & Stitch (2006) WEB-DLRip от Stranik 2.0 | D

45 | 2

1.87 ГБ

В этой теме нет новых непрочитанных сообщений. Лерой и Стич / Leroy & Stitch (2006) DVD5

4 | 2

4.23 ГБ

В этой теме нет новых непрочитанных сообщений. Лило и Стич / Lilo & Stitch: The Series [S01-03] (2003-2006) HDRip от Stranik 2.0 | D

211 | 81

17.16 ГБ

В этой теме нет новых непрочитанных сообщений. Стич! / Stitch! [S01] (2008) TVRip от Stranik 2.0 | D

11 | 5

5.27 ГБ

В этой теме нет новых непрочитанных сообщений. Стич! / Stitch! Best Friends Forever [S03x01-04, 08, 22, 24-30 из 30] (2010) TVRip от Stranik 2.0 | D

4 | 7

3.85 ГБ

В этой теме нет новых непрочитанных сообщений. Стич! / Stitch! Best Friends Forever [S03x01-04, 08, 22, 24-29 из 30] (2010) TVRip от Stranik 2.0 | D

10 | 6

3.51 ГБ




Вы не можете начинать темы
Вы не можете отвечать на сообщения
Вы не можете редактировать свои сообщения
Вы не можете удалять свои сообщения
Вы не можете добавлять вложения

Перейти:  
Для Мосгорсуда, Роскомнадзора и рекламодателей: mosgorsud-torrent[собачка]yandex.ru
 Вход
ppkBB3cker v.2 © 2008-2014 @ PPK
[ Time : 0.042s | 15 Queries | GZIP : Off ]

Торрент трекер RUTOR.IN, Не можете зайти на rutor.org? Какой новый адрес рутор? Какое зеркало рутор? Не работает rutor.org и зеркала? Тогда наш торрент специально для вас. Rutor.in неофициальное зеркало rutor. В случае если у Вас заблокирован rutor или вдруг Вы не можете на него зайти, то Вы без труда сможете скачать бесплатно и без рекламы последние новинки кино, игр, сериалов и прочего у нас, на Rutor.in. Не нужно использовать прокси, чтобы зайти на рутор, достаточно воспользоваться нашим ресурсом. Все новые фильмы, игры, сериалы, книги и музыка за 2013 и 2014 годы через торрент бесплатно. Скачивайте фильмы в хорошем качестве, игры для пк, xbox, playstation без регистрации. У нас вы найдете новые Зарубежные сериалы и Русские сериалы 2013, 2014, 2015 годов. Оставайтесь с нами, качайте любимые фильмы, игры, сериалы, книги и музыку.
cron