img image001 image001 image001 image001 image001 image001 image001 image001 image001 image001 image001 image001 image001 image001 image001

Planets Sun Sun Sun
Статистика раздачи
Автор: Снежана | Размер: 4.03 ГБ | Добавлен: 27 июл 2013
Раздают: 1    Качают: 1
Скачать торрент
Скачать торрент
Описание торрента

СообщениеДобавлено: 27 июл 2013 

#77
Информация о фильме
Оригинальное название: Don gato y su pandilla
Название: Топ Кэт
Год выхода: 2011
Жанр: мультфильм, боевик, комедия, семейный
Режиссер: Альберто Мар
В ролях: Джейсон Харрис, Крис Эджерли, Билл Лобли, Бен Дискин, Мэттью Пьяцци, Мелисса Дисней, Боб Калибан, Брайан МакФедден, Фред Татаскьор, Крис Филлипс

О фильме: Супер Кот и его озорная шайка бродячих котов сталкиваются с новым шефом полиции и своим старым заклятым врагом — офицером Дибблом. Полиция полна решимости помешать проделкам Кота и надеется выдворить его из любимого переулка. Но как бы они не старались, команде Супер Кота всегда удается обвести блюстителей закона вокруг пальца.



Выпущено: Мексика, Аргентина, Великобритания
Продолжительность: 01:30:19
Перевод: Дублированный [Лицензия]
Дополнительно: Сохранены оригинальные чаптеры как на Blu-Ray

Файл
Кодек: MKV
Качество: BDRip 720p
Видео: MPEG4 Video (H264), 1280x720, 23.976fps, ~4430 kbps
Звук: RUS: DTS, 6 ch, ~1510 kbps / ENG: AC3, 6 ch, 448.00 kbps
Сэмпл





General
Unique ID : 247630387453707842425450875433806609219 (0xBA4BE0B9B61DA1D5BE49BE1580423B43)
Complete name : J:РаздачиTop.Cat.2011.D.BDRip.720p.mkv
Format : Matroska
Format version : Version 2
File size : 4.03 GiB
Duration : 1h 30mn
Overall bit rate : 6 391 Kbps
Movie name : IRONCLUB
Encoded date : UTC 2012-12-10 18:43:45
Writing application : mkvmerge v5.2.0 ('I can't explain') built on Dec 18 2011 18:12:03
Writing library : libebml v1.2.3 + libmatroska v1.3.0

Video
ID : 1
Format : AVC
Format/Info : Advanced Video Codec
Format profile : High@L4.1
Format settings, CABAC : Yes
Format settings, ReFrames : 5 frames
Codec ID : V_MPEG4/ISO/AVC
Duration : 1h 30mn
Bit rate : 4 430 Kbps
Width : 1 280 pixels
Height : 720 pixels
Display aspect ratio : 16:9
Frame rate mode : Constant
Frame rate : 23.976 fps
Color space : YUV
Chroma subsampling : 4:2:0
Bit depth : 8 bits
Scan type : Progressive
Bits/(Pixel*Frame) : 0.200
Stream size : 2.72 GiB (67%)
Writing library : x264 core 125 r2200 999b753
Encoding settings : cabac=1 / ref=5 / deblock=1:0:0 / analyse=0x3:0x133 / me=umh / subme=7 / psy=1 / psy_rd=1.00:0.00 / mixed_ref=1 / me_range=16 / chroma_me=1 / trellis=1 / 8x8dct=1 / cqm=0 / deadzone=21,11 / fast_pskip=0 / chroma_qp_offset=-2 / threads=24 / lookahead_threads=4 / sliced_threads=0 / nr=0 / decimate=1 / interlaced=0 / bluray_compat=0 / constrained_intra=0 / bframes=3 / b_pyramid=2 / b_adapt=1 / b_bias=0 / direct=3 / weightb=1 / open_gop=0 / weightp=2 / keyint=240 / keyint_min=23 / scenecut=40 / intra_refresh=0 / rc_lookahead=40 / rc=2pass / mbtree=1 / bitrate=4430 / ratetol=1.0 / qcomp=0.60 / qpmin=10 / qpmax=51 / qpstep=4 / cplxblur=20.0 / qblur=0.5 / ip_ratio=1.40 / aq=1:1.00
Language : English
Default : Yes
Forced : Yes

Audio #1
ID : 2
Format : DTS
Format/Info : Digital Theater Systems
Codec ID : A_DTS
Duration : 1h 30mn
Bit rate mode : Constant
Bit rate : 1 510 Kbps
Channel(s) : 6 channels
Channel positions : Front: L C R, Side: L R, LFE
Sampling rate : 48.0 KHz
Bit depth : 24 bits
Compression mode : Lossy
Stream size : 975 MiB (24%)
Title : DTS 5.1 @ 1536 kbps - Dub, BD
Language : Russian
Default : Yes
Forced : Yes

Audio #2
ID : 3
Format : AC-3
Format/Info : Audio Coding 3
Mode extension : CM (complete main)
Format settings, Endianness : Big
Codec ID : A_AC3
Duration : 1h 30mn
Bit rate mode : Constant
Bit rate : 448 Kbps
Channel(s) : 6 channels
Channel positions : Front: L C R, Side: L R, LFE
Sampling rate : 48.0 KHz
Bit depth : 16 bits
Compression mode : Lossy
Stream size : 289 MiB (7%)
Title : DD 5.1 @ 448 kbps
Language : English
Default : No
Forced : No

Text
ID : 4
Format : UTF-8
Codec ID : S_TEXT/UTF8
Codec ID/Info : UTF-8 Plain Text
Default : Yes
Forced : No

Menu
00:00:00.000 : en:00:00:00.000
00:05:14.856 : en:00:05:14.856
00:09:39.203 : en:00:09:39.203
00:16:31.740 : en:00:16:31.740
00:20:11.168 : en:00:20:11.168
00:27:02.078 : en:00:27:02.078
00:32:34.077 : en:00:32:34.077
00:38:38.524 : en:00:38:38.524
00:44:07.061 : en:00:44:07.061
00:49:09.863 : en:00:49:09.863
00:54:40.360 : en:00:54:40.360
00:59:47.208 : en:00:59:47.208
01:06:54.510 : en:01:06:54.510
01:11:43.048 : en:01:11:43.048
01:14:53.655 : en:01:14:53.655
01:21:41.021 : en:01:21:41.021




   Похожие торренты   Торрент   Размер 
В этой теме нет новых непрочитанных сообщений. Топ Кэт / Don gato y su pandilla (2011) HDRip | Лицензия

27 | 1

700.97 МБ

В этой теме нет новых непрочитанных сообщений. Топ Кэт / Don Gato y su pandilla (2011) HDRip | Лицензия

9 | 2

1.37 ГБ

В этой теме нет новых непрочитанных сообщений. Топ Кэт / Don gato y su pandilla (2011) HDRip от Youtracker | Лицензия

3 | 1

1.45 ГБ

В этой теме нет новых непрочитанных сообщений. Топ Кэт / Don gato y su pandilla (2011) BDRip 1080p от Youtracker | 3D-Video

0 | 3

5.33 ГБ

В этой теме нет новых непрочитанных сообщений. Топ Кэт / Don Gato y su pandilla (2011) DVDRip

0 | 2

1.47 ГБ

В этой теме нет новых непрочитанных сообщений. Топ Кэт / Don Gato y su pandilla (2011) HDRip

0 | 5

1.41 ГБ

В этой теме нет новых непрочитанных сообщений. Топ Кэт / Don Gato y su pandilla (2011) DVDRip

0 | 4

699 МБ




Вы не можете начинать темы
Вы не можете отвечать на сообщения
Вы не можете редактировать свои сообщения
Вы не можете удалять свои сообщения
Вы не можете добавлять вложения

Перейти:  
Для Мосгорсуда, Роскомнадзора и рекламодателей: mosgorsud-torrent[собачка]yandex.ru
 Вход
ppkBB3cker v.2 © 2008-2014 @ PPK
[ Time : 0.089s | 15 Queries | GZIP : Off ]

cron