img image001 image001 image001 image001 image001 image001 image001 image001 image001 image001 image001 image001 image001 image001 image001

Planets Sun Sun Sun
Статистика раздачи
Автор: Снежана | Размер: 7.95 ГБ | Добавлен: 27 июл 2013
Раздают: 3    Качают: 3
Скачать торрент
Скачать торрент
Описание торрента

СообщениеДобавлено: 27 июл 2013 

Новые Мстители

Ultimate Avengers

«Individually, they are super heroes. United, they are the Ultimate Avengers...»




#77

Год выпуска: 2006
Страна: США
Слоган: «Individually, they are super heroes. United, they are the Ultimate Avengers...»
Жанр: мультфильм, фантастика, фэнтези, боевик, приключения
Продолжительность: 01:11:21
Перевод: Профессиональный (многоголосый, закадровый)
Оригинальный

Режиссер: Курт Геда / Curt Geda, Стивен Е. Гордон / Steven E. Gordon, Боб Ричардсон / Bob Richardson
Сценарий: Брайан Хитч / Bryan Hitch, Грег Джонсон / Greg Johnson, Бойд Керклэнд / Boyd Kirkland, Крэйг Кайл / Craig Kyle, Марк Миллар / Mark Millar
Продюсер: Боб Ричардсон / Bob Richardson, Ави Арад / Avi Arad, Крэйг Кайл / Craig Kyle, Стэн Ли / Stan Lee, Эрик С. Роллман / Eric S. Rollman

В ролях: Джастин Гросс (Captain America / Steve Rogers, озвучка), Грэй ДеЛисл (Janet Pym / The Wasp, озвучка), Майкл Масси (Bruce Banner, озвучка), Оливия д’Або (Black Widow / Natalia Romanoff, озвучка), Марк Уорден (Iron Man / Tony Stark, озвучка), Нэн МакНамара (Dr. Betty Ross, озвучка), Нолан Норт (Giant Man / Hank Pym, озвучка), Андре Уэр (Nick Fury, озвучка), Дэвид Боат (Thor, озвучка), Фред Татаскьор (The Hulk / дополнительные голоса, озвучка), Джим Уорд (Herr Kleiser, озвучка), Ди Брэдли Бейкер (дополнительные голоса, озвучка)
Описание: В конце Второй Мировой войны молодой военный по имени Стив Роджерс стал частью эксперимента, благодаря которому США надеялись подавить последние очаги сопротивления нацистов на втором фронте. Результатом эксперимента стал сверхчеловек, «Капитан Америка», оставшийся Стивом Роджерсом лишь в повседневной жизни.
Но на первом же задании, атакуя секретный бункер фашистов, Роджерс лицом к лицу сталкивается с таинственным генералом Кляйзером - неуязвимым мутантом, вставшим во главе отряда чудовищ. Ценой собственной жизни Роджерсу удается обезвредить Кляйзера, но сам он бесследно исчезает, и его считают погибшим. Спустя 60 лет научный отдел Пентагона, проводя исследования во льдах Антарктики, случайно находит человека, вмерзшего в огромную льдину.
Вскоре выясняется, что этот человек не кто иной, как Стив Роджерс. Сверхчеловеческие способности помогли ему выжить, и теперь «Капитан Америка» должен возглавить целый отряд супергероев, чтобы противостоять генералу Кляйзеру, который успел набраться сил, и теперь стремится захватить одну из центральных военных баз.




Мировая премьера: 21 февраля 2006
Релиз на DVD: 18 октября 2011, «Lizard Cinema Trade»
MPAA: - Детям до 13 лет просмотр не желателен



Качество: BDRip
Контейнер: MKV
Видео: AVC, 1920x1080 (16:9), 7106 kbps, 23,976 fps, 0,143 bpp
Аудио №1: русский /; AC3 /; 2.0 /; 48 kHz /; 224 kbps /; 16 bit; ||
Аудио №2: английский /; AC3 /; 5.1 /; 48 kHz /; 640 kbps /; 16 bit
Субтитры №1: русские
Субтитры №2: английские
Навигация по главам: есть


Общее
Уникальный идентификатор : 172686132509085089867986009042963650257 (0x81EA23ACF6B64F7F9F4BB28F2977D6D1)
Полное имя : ULTIMATE_AVENGERS_COLLECTIONUltimate.Avengers.2006.BDRip.1080р.F.HD.mkv
Формат : Matroska
Версия формата : Version 2
Размер файла : 3,97 Гбайт
Продолжительность : 1 ч. 11 м.
Общий поток : 7970 Кбит/сек
Название фильма : ULTIMATE AVENGERS COLLECTION
Дата кодирования : UTC 2012-12-11 16:35:04
Программа кодирования : mkvmerge v5.8.0 ('No Sleep / Pillow') built on Sep 2 2012 15:37:04
Библиотека кодирования : libebml v1.2.3 + libmatroska v1.3.0

Видео
Идентификатор : 1
Формат : AVC
Формат/Информация : Advanced Video Codec
Профиль формата : High@L4.1
Параметр CABAC формата : Да
Параметр ReFrames формата : 4 кадра
Идентификатор кодека : V_MPEG4/ISO/AVC
Продолжительность : 1 ч. 11 м.
Битрейт : 7106 Кбит/сек
Ширина : 1920 пикселей
Высота : 1080 пикселей
Соотношение сторон : 16:9
Режим частоты кадров : Постоянный
Частота кадров : 23,976 кадра/сек
Цветовое пространство : YUV
Субдискретизация насыщенности : 4:2:0
Битовая глубина : 8 бит
Тип развёртки : Прогрессивная
Бит/(Пиксели*Кадры) : 0.143
Размер потока : 3,46 Гбайт (87%)
Заголовок : BDRip 1080p by FREEISLAND
Библиотека кодирования : x264 core 129 r2230 1cffe9f
Настройки программы : cabac=1 / ref=4 / deblock=1:-1:-1 / analyse=0x3:0x133 / me=umh / subme=11 / psy=1 / psy_rd=1.00:0.00 / mixed_ref=1 / me_range=32 / chroma_me=1 / trellis=2 / 8x8dct=1 / cqm=0 / deadzone=21,11 / fast_pskip=0 / chroma_qp_offset=-2 / threads=9 / lookahead_threads=1 / sliced_threads=0 / nr=0 / decimate=1 / interlaced=0 / bluray_compat=0 / constrained_intra=0 / bframes=8 / b_pyramid=2 / b_adapt=2 / b_bias=30 / direct=1 / weightb=1 / open_gop=0 / weightp=2 / keyint=230 / keyint_min=23 / scenecut=40 / intra_refresh=0 / rc=2pass / mbtree=0 / bitrate=7106 / ratetol=2.0 / qcomp=1.00 / qpmin=0 / qpmax=63 / qpstep=4 / cplxblur=20.0 / qblur=0.5 / ip_ratio=1.40 / pb_ratio=1.30 / aq=1:1.00
Язык : English
Default : Да
Forced : Нет
Основные цвета : BT.709
Характеристики трансфера : BT.709
Коэффициенты матрицы : BT.709

Аудио #1
Идентификатор : 2
Формат : AC-3
Формат/Информация : Audio Coding 3
Расширение режима : CM (complete main)
Параметр Endianness формата : Big
Идентификатор кодека : A_AC3
Продолжительность : 1 ч. 11 м.
Вид битрейта : Постоянный
Битрейт : 224 Кбит/сек
Каналы : 2 канала
Расположение каналов : Front: L R
Частота : 48,0 КГц
Битовая глубина : 16 бит
Метод сжатия : С потерями
Размер потока : 114 Мбайт (3%)
Заголовок : MVO
Язык : Russian
Default : Да
Forced : Нет

Аудио #2
Идентификатор : 3
Формат : AC-3
Формат/Информация : Audio Coding 3
Расширение режима : CM (complete main)
Параметр Endianness формата : Big
Идентификатор кодека : A_AC3
Продолжительность : 1 ч. 11 м.
Вид битрейта : Постоянный
Битрейт : 640 Кбит/сек
Каналы : 6 каналов
Расположение каналов : Front: L C R, Side: L R, LFE
Частота : 48,0 КГц
Битовая глубина : 16 бит
Метод сжатия : С потерями
Размер потока : 327 Мбайт (8%)
Язык : English
Default : Нет
Forced : Нет

Текст #1
Идентификатор : 4
Формат : UTF-8
Идентификатор кодека : S_TEXT/UTF8
Идентификатор кодека/Информация : UTF-8 Plain Text
Язык : Russian
Default : Да
Forced : Нет

Текст #2
Идентификатор : 5
Формат : UTF-8
Идентификатор кодека : S_TEXT/UTF8
Идентификатор кодека/Информация : UTF-8 Plain Text
Язык : English
Default : Нет
Forced : Нет

Меню
00:00:00.000 : en:Chapter 01
00:05:36.169 : en:Chapter 02
00:09:07.588 : en:Chapter 03
00:13:35.731 : en:Chapter 04
00:17:13.532 : en:Chapter 05
00:21:31.164 : en:Chapter 06
00:25:38.828 : en:Chapter 07
00:30:06.346 : en:Chapter 08
00:33:58.119 : en:Chapter 09
00:38:45.197 : en:Chapter 10
00:43:32.484 : en:Chapter 11
00:48:06.508 : en:Chapter 12
00:52:56.339 : en:Chapter 13
00:59:15.510 : en:Chapter 14
01:04:19.480 : en:Chapter 15
01:07:18.868 : en:Chapter 16
01:11:21.026 : en:Chapter 17







Несокрушимые мстители

Ultimate Avengers II

«To save humanity, the Earth's mightiest heroes must reunite for a rematch of heroic proportions.»





Год выпуска: 2006
Страна: США
Слоган: «To save humanity, the Earth's mightiest heroes must reunite for a rematch of heroic proportions.»
Жанр: мультфильм, фантастика, фэнтези, боевик, приключения
Продолжительность: 01:12:47
Перевод: Профессиональный (многоголосый, закадровый)
Авторский (Дольский Андрей)
Оригинальный

Режиссер: Уилл Меньот / Will Meugniot, Дик Сэбаст / Dick Sebast, Боб Ричардсон / Bob Richardson
Сценарий: Брайан Хитч / Bryan Hitch, Грег Джонсон / Greg Johnson, Джек Кирби / Jack Kirby, Бойд Керклэнд / Boyd Kirkland, Крэйг Кайл / Craig Kyle
Продюсер: Боб Ричардсон / Bob Richardson, Ави Арад / Avi Arad, Ron Hohauser, Крэйг Кайл / Craig Kyle, Стэн Ли / Stan Lee

В ролях: Джастин Гросс (Captain America / Steve Rogers, озвучка), Грэй ДеЛисл (Wasp / Janet Pym, озвучка), Майкл Масси (Doctor Bruce Banner, озвучка), Марк Уорден (Iron Man / Tony Stark, озвучка), Оливия д’Або (Black Widow / Natalia Romanoff, озвучка), Нэн МакНамара (Doctor Betty Ross, озвучка), Нолан Норт (Giant Man / Hank Pym, озвучка), Андре Уэр (General Nick Fury, озвучка), Дэвид Боат (Thor, озвучка), Фред Татаскьор (The Hulk / Edwin Jarvis, озвучка), Джим Уорд (Herr Kleiser / дополнительные голоса, озвучка), Дэйв Фенной (T'Chaka / Black Panther I, озвучка)

Описание: Команда супергероев «Капитана Америка» отправляется в Африку, где был вероломно убит король одного из древних племен. Теперь смертельная опасность угрожает его сыну - Черной Пантере. Именно ему предстоит унаследовать трон и сверхъестественные способности отца.
Генерал Кляйзер, желая обрести мировое господство, стремится завладеть могучим артефактом, который мужественно защищает племя Пантеры. Но выстоять против могучей армии Кляйзера практически невозможно... Только с помощью знаменитых героев комиксов Марвел у Черной Пантеры есть шанс спасти мир от катастрофы.



Бюджет: $50 000 000

Мировая премьера: 2 июля 2006
Релиз на DVD: 5 июня 2012, «Lizard Cinema Trade»
MPAA: - Детям до 13 лет просмотр не желателен



Качество: BDRip
Контейнер: MKV
Видео: AVC, 1920x1080 (16:9), 6756 kbps, 23,976 fps, 0,136 bpp
Аудио №1: русский /; AC3 /; 2.0 /; 48 kHz /; 224 kbps /; 16 bit; ||
Аудио №2: русский /; AC3 /; 2.0 /; 48 kHz /; 192 kbps /; 16 bit; ||
Аудио №3: английский /; AC3 /; 5.1 /; 48 kHz /; 640 kbps /; 16 bit
Субтитры №1: русские
Субтитры №2: английские
Навигация по главам: есть



Общее
Уникальный идентификатор : 199725251093311518863369066852541445672 (0x9641AF25F7A8AEB8AABAFE9834F6B628)
Полное имя : ULTIMATE_AVENGERS_COLLECTIONUltimate.Avengers.II.2006.BDRip.1080р.F.HD.mkv
Формат : Matroska
Версия формата : Version 2
Размер файла : 3,97 Гбайт
Продолжительность : 1 ч. 12 м.
Общий поток : 7814 Кбит/сек
Название фильма : ULTIMATE AVENGERS COLLECTION
Дата кодирования : UTC 2012-12-11 16:38:06
Программа кодирования : mkvmerge v5.8.0 ('No Sleep / Pillow') built on Sep 2 2012 15:37:04
Библиотека кодирования : libebml v1.2.3 + libmatroska v1.3.0

Видео
Идентификатор : 1
Формат : AVC
Формат/Информация : Advanced Video Codec
Профиль формата : High@L4.1
Параметр CABAC формата : Да
Параметр ReFrames формата : 4 кадра
Идентификатор кодека : V_MPEG4/ISO/AVC
Продолжительность : 1 ч. 12 м.
Битрейт : 6756 Кбит/сек
Ширина : 1920 пикселей
Высота : 1080 пикселей
Соотношение сторон : 16:9
Режим частоты кадров : Постоянный
Частота кадров : 23,976 кадра/сек
Цветовое пространство : YUV
Субдискретизация насыщенности : 4:2:0
Битовая глубина : 8 бит
Тип развёртки : Прогрессивная
Бит/(Пиксели*Кадры) : 0.136
Размер потока : 3,36 Гбайт (84%)
Заголовок : BDRip 1080p by FREEISLAND
Библиотека кодирования : x264 core 129 r2230 1cffe9f
Настройки программы : cabac=1 / ref=4 / deblock=1:-1:-1 / analyse=0x3:0x133 / me=umh / subme=11 / psy=1 / psy_rd=1.00:0.00 / mixed_ref=1 / me_range=32 / chroma_me=1 / trellis=2 / 8x8dct=1 / cqm=0 / deadzone=21,11 / fast_pskip=0 / chroma_qp_offset=-2 / threads=9 / lookahead_threads=1 / sliced_threads=0 / nr=0 / decimate=1 / interlaced=0 / bluray_compat=0 / constrained_intra=0 / bframes=8 / b_pyramid=2 / b_adapt=2 / b_bias=30 / direct=1 / weightb=1 / open_gop=0 / weightp=2 / keyint=230 / keyint_min=23 / scenecut=40 / intra_refresh=0 / rc=2pass / mbtree=0 / bitrate=6756 / ratetol=2.0 / qcomp=1.00 / qpmin=0 / qpmax=63 / qpstep=4 / cplxblur=20.0 / qblur=0.5 / ip_ratio=1.40 / pb_ratio=1.30 / aq=1:1.00
Язык : English
Default : Да
Forced : Нет
Основные цвета : BT.709
Характеристики трансфера : BT.709
Коэффициенты матрицы : BT.709

Аудио #1
Идентификатор : 2
Формат : AC-3
Формат/Информация : Audio Coding 3
Расширение режима : CM (complete main)
Параметр Endianness формата : Big
Идентификатор кодека : A_AC3
Продолжительность : 1 ч. 12 м.
Вид битрейта : Постоянный
Битрейт : 224 Кбит/сек
Каналы : 2 канала
Расположение каналов : Front: L R
Частота : 48,0 КГц
Битовая глубина : 16 бит
Метод сжатия : С потерями
Размер потока : 117 Мбайт (3%)
Заголовок : MVO
Язык : Russian
Default : Да
Forced : Нет

Аудио #2
Идентификатор : 3
Формат : AC-3
Формат/Информация : Audio Coding 3
Расширение режима : CM (complete main)
Параметр Endianness формата : Big
Идентификатор кодека : A_AC3
Продолжительность : 1 ч. 12 м.
Вид битрейта : Постоянный
Битрейт : 192 Кбит/сек
Каналы : 2 канала
Расположение каналов : Front: L R
Частота : 48,0 КГц
Битовая глубина : 16 бит
Метод сжатия : С потерями
Размер потока : 100,0 Мбайт (2%)
Заголовок : AVO [А. Дольский]
Язык : Russian
Default : Нет
Forced : Нет

Аудио #3
Идентификатор : 4
Формат : AC-3
Формат/Информация : Audio Coding 3
Расширение режима : CM (complete main)
Параметр Endianness формата : Big
Идентификатор кодека : A_AC3
Продолжительность : 1 ч. 12 м.
Вид битрейта : Постоянный
Битрейт : 640 Кбит/сек
Каналы : 6 каналов
Расположение каналов : Front: L C R, Side: L R, LFE
Частота : 48,0 КГц
Битовая глубина : 16 бит
Метод сжатия : С потерями
Размер потока : 333 Мбайт (8%)
Язык : English
Default : Нет
Forced : Нет

Текст #1
Идентификатор : 5
Формат : UTF-8
Идентификатор кодека : S_TEXT/UTF8
Идентификатор кодека/Информация : UTF-8 Plain Text
Язык : Russian
Default : Да
Forced : Нет

Текст #2
Идентификатор : 6
Формат : UTF-8
Идентификатор кодека : S_TEXT/UTF8
Идентификатор кодека/Информация : UTF-8 Plain Text
Язык : English
Default : Нет
Forced : Нет

Меню
00:00:00.000 : en:Chapter 01
00:07:30.533 : en:Chapter 02
00:10:21.370 : en:Chapter 03
00:15:10.868 : en:Chapter 04
00:17:13.490 : en:Chapter 05
00:23:28.615 : en:Chapter 06
00:27:38.490 : en:Chapter 07
00:32:06.674 : en:Chapter 08
00:36:01.534 : en:Chapter 09
00:41:36.285 : en:Chapter 10
00:46:14.772 : en:Chapter 11
00:49:32.177 : en:Chapter 12
00:54:02.238 : en:Chapter 13
00:57:44.794 : en:Chapter 14
01:05:05.776 : en:Chapter 15
01:09:58.027 : en:Chapter 16
01:12:47.112 : en:Chapter 17




Релиз от:



   Похожие торренты   Торрент   Размер 
В этой теме нет новых непрочитанных сообщений. Несокрушимые мстители / Ultimate Avengers II (2006) BDRip от HQ-ViDEO | P

190 | 10

1.46 ГБ

В этой теме нет новых непрочитанных сообщений. Новые Мстители / Ultimate Avengers (2006) BDRip от HELLYWOOD

124 | 14

1.09 ГБ

В этой теме нет новых непрочитанных сообщений. Новые Мстители / Защитники справедливости / Ultimate Avengers (2006) BDRip от HQCLUB

31 | 12

1.09 ГБ

В этой теме нет новых непрочитанных сообщений. Новые Мстители 2 / Защитники справедливости 2 / Ultimate Avengers 2 (2006) BDRip от HQCLUB

82 | 12

1.09 ГБ

В этой теме нет новых непрочитанных сообщений. Новые Мстители 2 / Защитники справедливости 2 / Ultimate Avengers 2 (2006) BDRip [720p] от DHT-Movies

62 | 5

2.2 ГБ

В этой теме нет новых непрочитанных сообщений. Новые Мстители / Защитники справедливости / Ultimate Avengers (2006) BDRip [720p] от DHT-Movies

27 | 3

2.15 ГБ

В этой теме нет новых непрочитанных сообщений. Мстители / The Avengers (2012) BDRip 1080p от FREEISLAND

40 | 11

10.86 ГБ




Вы не можете начинать темы
Вы не можете отвечать на сообщения
Вы не можете редактировать свои сообщения
Вы не можете удалять свои сообщения
Вы не можете добавлять вложения

Перейти:  
Для Мосгорсуда, Роскомнадзора и рекламодателей: mosgorsud-torrent[собачка]yandex.ru
 Вход
ppkBB3cker v.2 © 2008-2014 @ PPK
[ Time : 0.028s | 14 Queries | GZIP : Off ]

Торрент трекер RUTOR.IN, Не можете зайти на rutor.org? Какой новый адрес рутор? Какое зеркало рутор? Не работает rutor.org и зеркала? Тогда наш торрент специально для вас. Rutor.in неофициальное зеркало rutor. В случае если у Вас заблокирован rutor или вдруг Вы не можете на него зайти, то Вы без труда сможете скачать бесплатно и без рекламы последние новинки кино, игр, сериалов и прочего у нас, на Rutor.in. Не нужно использовать прокси, чтобы зайти на рутор, достаточно воспользоваться нашим ресурсом. Все новые фильмы, игры, сериалы, книги и музыка за 2013 и 2014 годы через торрент бесплатно. Скачивайте фильмы в хорошем качестве, игры для пк, xbox, playstation без регистрации. У нас вы найдете новые Зарубежные сериалы и Русские сериалы 2013, 2014, 2015 годов. Оставайтесь с нами, качайте любимые фильмы, игры, сериалы, книги и музыку.