img image001 image001 image001 image001 image001 image001 image001 image001 image001 image001 image001 image001 image001 image001 image001

Planets Sun Sun Sun
Статистика раздачи
Автор: Снежана | Размер: 2.91 ГБ | Добавлен: 27 июл 2013
Раздают: 3    Качают: 3
Скачать торрент
Скачать торрент
Описание торрента

СообщениеДобавлено: 27 июл 2013 

Паранорман, или Как приручить зомби
ParaNorman
(2012)
BDRip 1080p [Hi10P] от FREEISLAND




Жанр: Мультфильм, ужасы, фэнтези, комедия, приключения, семейный

Режиссер: Крис Батлер, Сэм Фелл

Роли дублировали:
Александр Комлев, Денис Беспалый, Алексей Борзунов, Вероника Саркисова, Алексей Колган, Александр Гаврилин, Иван Жарков

Описание:
Норман, Паранорман. Единственная надежда полусонного городка в борьбе с полчищами нечисти. Его оружие — супер-мега-дар: умение общаться с призраками. Впрочем, мертвецы — не главная опасность, куда хуже — глупые взрослые с дробовиками наперевес.



Официальный сайт

Страна: США
Выпущено: Laika Entertainment
Продолжительность: 1 ч. 24 м. 36 с. (титры обрезаны в целях экономии битрейта)
Перевод: Русский профессиональный (полное дублирование)
Оригинальная разбивка на главы: сохранена

Внимание!

Рип в High 10 Profile, в настоящее время не поддерживается большинством аппаратных проигрывателей.
Для корректного воспроизведения может потребоваться обновление ПО.
Владельцам несовместимого железа просьба не беспокоить, на трекере есть альтернативные релизы.

Качество: BDRip 1080p Hi10P (SSIM: 0.9881470)
Исходник: BDRemux
Контейнер: MKV
Видео кодек: x264 High10@L5.0
Аудио кодек: DTS
Видео: AVC at 4152 Кбит/сек, 1920 x 800 (2.400) at 23.976 fps
Аудио: DTS at 768 Кбит/сек, 6 каналов, 48,0 КГц
Субтитры: русские на места без перевода, + полные (SRT/UTF-8)


Общее
Уникальный идентификатор : 230944017317933354683501304088928507268 (0xADBE3328E8A924D1B8F2CD9C6F14D584)
Полное имя : Паранорман, или Как приручить зомби [ParaNorman] (2012) BDRip-Hi10P 1080p by_F.HD.mkv
Формат : Matroska
Версия формата : Version 2
Размер файла : 2,91 Гбайт
Продолжительность : 1 ч. 24 м.
Общий поток : 4922 Кбит/сек
Название фильма : релиз от FREEISLAND.ORG
Дата кодирования : UTC 2012-12-11 18:03:07
Программа кодирования : mkvmerge v5.8.0 ('No Sleep / Pillow') built on Sep 2 2012 15:37:04
Библиотека кодирования : libebml v1.2.3 + libmatroska v1.3.0

Видео
Идентификатор : 1
Формат : AVC
Формат/Информация : Advanced Video Codec
Профиль формата : High 10@L5.0
Параметр CABAC формата : Да
Параметр ReFrames формата : 16 кадров
Идентификатор кодека : V_MPEG4/ISO/AVC
Продолжительность : 1 ч. 24 м.
Битрейт : 4152 Кбит/сек
Ширина : 1920 пикселей
Высота : 800 пикселей
Соотношение сторон : 2,40:1
Частота кадров : 23,976 кадра/сек
Цветовое пространство : YUV
Субдискретизация насыщенности : 4:2:0
Битовая глубина : 10 бит
Тип развёртки : Прогрессивная
Бит/(Пиксели*Кадры) : 0.113
Размер потока : 2,41 Гбайт (83%)
Библиотека кодирования : x264 core 129 r2230+696+35 805d074 tMod [10-bit@all X86_64]
Настройки программы : cabac=1 / ref=16 / deblock=1:1:1 / analyse=0x3:0x133 / me=umh / subme=11 / psy=1 / fade_compensate=0.00 / psy_rd=1.00:0.10 / mixed_ref=1 / me_range=64 / chroma_me=1 / trellis=2 / 8x8dct=1 / cqm=0 / deadzone=21,11 / fast_pskip=0 / chroma_qp_offset=-3 / threads=12 / lookahead_threads=2 / sliced_threads=0 / nr=0 / decimate=1 / interlaced=0 / bluray_compat=0 / constrained_intra=0 / fgo=0 / bframes=13 / b_pyramid=2 / b_adapt=2 / b_bias=0 / direct=3 / weightb=1 / open_gop=0 / weightp=2 / keyint=252 / keyint_min=23 / scenecut=40 / intra_refresh=0 / rc_lookahead=0 / rc=2pass / mbtree=0 / bitrate=4152 / ratetol=1.0 / qcomp=1.00 / qpmin=0 / qpmax=48 / qpstep=4 / cplxblur=20.0 / qblur=0.5 / vbv_maxrate=240000 / vbv_bufsize=240000 / nal_hrd=none / ip_ratio=1.40 / pb_ratio=1.30 / aq=4:0.85
Default : Да
Forced : Нет
Основные цвета : BT.709-5, BT.1361, IEC 61966-2-4, SMPTE RP177
Характеристики трансфера : BT.709-5, BT.1361
Коэффициенты матрицы : BT.709-5, BT.1361, IEC 61966-2-4 709, SMPTE RP177

Аудио
Идентификатор : 2
Формат : DTS
Формат/Информация : Digital Theater Systems
Идентификатор кодека : A_DTS
Продолжительность : 1 ч. 24 м.
Вид битрейта : Постоянный
Битрейт : 755 Кбит/сек
Каналы : 6 каналов
Расположение каналов : Front: L C R, Side: L R, LFE
Частота : 48,0 КГц
Битовая глубина : 24 бит
Метод сжатия : С потерями
Размер потока : 457 Мбайт (15%)
Заголовок : DUB
Язык : Russian
Default : Да
Forced : Нет

Текст #1
Идентификатор : 3
Формат : UTF-8
Идентификатор кодека : S_TEXT/UTF8
Идентификатор кодека/Информация : UTF-8 Plain Text
Заголовок : на места без перевода
Язык : Russian
Default : Да
Forced : Да

Текст #2
Идентификатор : 4
Формат : UTF-8
Идентификатор кодека : S_TEXT/UTF8
Идентификатор кодека/Информация : UTF-8 Plain Text
Заголовок : Full
Язык : Russian
Default : Нет
Forced : Нет

Меню
00:00:00.000 : :01
00:04:24.389 : :02
00:07:58.395 : :03
00:11:07.834 : :04
00:14:39.545 : :05
00:17:39.642 : :06
00:21:23.115 : :07
00:25:54.471 : :08
00:29:33.939 : :09
00:33:25.086 : :10
00:37:45.889 : :11
00:42:35.511 : :12
00:49:05.818 : :13
00:52:15.758 : :14
00:56:15.163 : :15
01:00:44.933 : :16
01:05:22.544 : :17
01:11:20.026 : :18
01:17:48.455 : :19
01:24:36.363 : :20













СЭМПЛ

Релиз от:

Если у вас возникают вопросы типа:
-почему у меня есть звук и отсутствует изображение?
-почему у меня рассыпается картинка?
-почему у меня картинка фонит синевой или зеленью?
-зачем и кому всё это нужно?
и тому подобные, читаем FAQ.
ссылка на FAQ запрещена правилами.

По этому, гуглим на тему спойлера (Что такое 10-ти битное видео (High 10 Profile - Hi10P), и как его смотреть?).



   Похожие торренты   Торрент   Размер 
В этой теме нет новых непрочитанных сообщений. Паранорман, или Как приручить зомби / ParaNorman (2012) BDRip 1080p

40 | 4

4.37 ГБ

В этой теме нет новых непрочитанных сообщений. Паранорман, или Как приручить зомби / ParaNorman (2012) BDRip 1080p | Лицензия

3 | 2

6.9 ГБ

В этой теме нет новых непрочитанных сообщений. Паранорман, или Как приручить зомби / ParaNorman (2012) BDRip 1080p | 3D-Video

5 | 4

7.07 ГБ

В этой теме нет новых непрочитанных сообщений. Паранорман, или Как приручить зомби / ParaNorman (2012) BDRip 1080p от Youtracker | Лицензия

4 | 10

8.56 ГБ

В этой теме нет новых непрочитанных сообщений. Паранорман, или Как приручить зомби / ParaNorman (2012) BDRip 1080p от Youtracker | 3D-Video

48 | 3

5.27 ГБ

В этой теме нет новых непрочитанных сообщений. Паранорман, или Как приручить зомби / ParaNorman (2012) BDRemux 1080p

2 | 4

23.29 ГБ

В этой теме нет новых непрочитанных сообщений. Паранорман, или Как приручить зомби / ParaNorman (2012) BDRip-AVC | iPad

5 | 3

1.06 ГБ




Вы не можете начинать темы
Вы не можете отвечать на сообщения
Вы не можете редактировать свои сообщения
Вы не можете удалять свои сообщения
Вы не можете добавлять вложения

Перейти:  
Для Мосгорсуда, Роскомнадзора и рекламодателей: mosgorsud-torrent[собачка]yandex.ru
 Вход
ppkBB3cker v.2 © 2008-2014 @ PPK
[ Time : 0.049s | 15 Queries | GZIP : Off ]

Торрент трекер RUTOR.IN, Не можете зайти на rutor.org? Какой новый адрес рутор? Какое зеркало рутор? Не работает rutor.org и зеркала? Тогда наш торрент специально для вас. Rutor.in неофициальное зеркало rutor. В случае если у Вас заблокирован rutor или вдруг Вы не можете на него зайти, то Вы без труда сможете скачать бесплатно и без рекламы последние новинки кино, игр, сериалов и прочего у нас, на Rutor.in. Не нужно использовать прокси, чтобы зайти на рутор, достаточно воспользоваться нашим ресурсом. Все новые фильмы, игры, сериалы, книги и музыка за 2013 и 2014 годы через торрент бесплатно. Скачивайте фильмы в хорошем качестве, игры для пк, xbox, playstation без регистрации. У нас вы найдете новые Зарубежные сериалы и Русские сериалы 2013, 2014, 2015 годов. Оставайтесь с нами, качайте любимые фильмы, игры, сериалы, книги и музыку.