img image001 image001 image001 image001 image001 image001 image001 image001 image001 image001 image001 image001 image001 image001 image001

Planets Sun Sun Sun
Статистика раздачи
Автор: Снежана | Размер: 267.83 МБ | Добавлен: 27 июл 2013
Раздают: 3    Качают: 2
Скачать торрент
Скачать торрент
Описание торрента

СообщениеДобавлено: 27 июл 2013 





Название: Приключения Кэти и Макса: Свет перед Рождеством
Оригинальное название: The Light Before Christmas
Страна: США
Жанр: мультфильм, короткометражка
Продолжительность: 00:28:14
Год выпуска: 2007
Композитор: Лайл Мур
Режиссёр: Натан Смит
Русские субтитры: нет
Перевод: профессиональный (дублированный)

Описание:
Кто хочет оказаться праздничной рождественской ночью в заснеженном лесу? К счастью, на помощь заплутавшим в чаще Кэти и Максу приходит добрый волшебник Дядюшка Кэндл. Он вышел к детишкам на встречу и отвел их в свой дом.
Здесь есть и живые ёлочные игрушки, и удивительная книга сказок. Стоило дядюшке начать читать, как Кэти с Максом перенеслись на её страницы. И теперь они узнают, что же это такое за рождественские огни и почему в этот день обязательно нужно дарить всем подарки.

релиз группа: SUPERDETKI


Технические характеристики:
Видео:
Кодек: MPEG-4 Video (XVID)
Разрешение: 704x400
Частота кадров: 25

Аудио:
Кодек: Mp3
Каналы: стерео
Частота дискретизации: 48000 Гц
Битрейт: 320 кб/сек

Общее
Полное имя : rozdestvo.AVI
Формат : AVI
Формат/Информация : Audio Video Interleave
Размер файла : 268 Мбайт
Продолжительность : 28 м.
Общий поток : 1326 Кбит/сек
Название фильма : rozdestvo.avi

Видео
Идентификатор : 0
Формат : MPEG-4 Visual
Профиль формата : Advanced Simple@L5
Параметр BVOP формата : Нет
Параметр QPel формата : Нет
Параметр GMC формата : Без точки перехода
Параметр матрицы формата : Default (H.263)
Идентификатор кодека : XVID
Идентификатор кодека/Подсказка : XviD
Продолжительность : 28 м.
Битрейт : 993 Кбит/сек
Ширина : 704 пикселя
Высота : 400 пикселей
Соотношение сторон : 4:3
Частота кадров : 25,000 кадров/сек
Цветовое пространство : YUV
Субдискретизация насыщенности : 4:2:0
Битовая глубина : 8 бит
Тип развёртки : Прогрессивная
Метод сжатия : С потерями
Бит/(Пиксели*Кадры) : 0.141
Размер потока : 201 Мбайт (75%)

Аудио
Идентификатор : 1
Формат : MPEG Audio
Версия формата : Version 1
Профиль формата : Layer 3
Режим : Joint stereo
Идентификатор кодека : 55
Идентификатор кодека/Подсказка : MP3
Продолжительность : 28 м.
Вид битрейта : Постоянный
Битрейт : 320 Кбит/сек
Каналы : 2 канала
Частота : 48,0 КГц
Метод сжатия : С потерями
Размер потока : 64,7 Мбайт (24%)
Выравнивание : Соединение по промежуткам
Продолжительность промежутка : 24 мс. (0,60 видеокадр)
Библиотека кодирования : LAME







   Похожие торренты   Торрент   Размер 
В этой теме нет новых непрочитанных сообщений. Приключения Кэти и Макса: Свет перед Рождеством / The Light Before Christmas (2007) DVDRip-AVC от KinoRay & Sheikn

56 | 6

544.12 МБ

В этой теме нет новых непрочитанных сообщений. Приключения Кэти и Макса: Страшилка на Хэллоуин / Spooky Bats and Scaredy Cats: A Halloween Tale (2008) DVDRip от KinoRay & Sheikn

68 | 16

392.81 МБ

В этой теме нет новых непрочитанных сообщений. Приключения Кэти и Макса: Страшилка на Хэллоуин / Spooky Bats and Scaredy Cats: A Halloween Tale (2008) DVDRip-AVC от KinoRay & Sheikn

13 | 8

549.95 МБ

В этой теме нет новых непрочитанных сообщений. Полет перед Рождеством / The Flight Before Christmas (2008) DVDRip

8 | 3

1.37 ГБ

В этой теме нет новых непрочитанных сообщений. Ночь перед Рождеством: Мышиные истории / The Night Before Christmas: A Mouse Tale (2002) DVDRip | P

166 | 28

710.59 МБ

В этой теме нет новых непрочитанных сообщений. Белый свет / Черный дождь: Разрушение Хиросимы и Нагасаки / White Light / Black Rain: The Destruction of Hiroshima and Nagasaki (2007) HDTVRip

107 | 21

1.46 ГБ

В этой теме нет новых непрочитанных сообщений. Кошмар перед Рождеством / The Nightmare Before Christmas (1993) DVD9

0 | 4

7.64 ГБ




Вы не можете начинать темы
Вы не можете отвечать на сообщения
Вы не можете редактировать свои сообщения
Вы не можете удалять свои сообщения
Вы не можете добавлять вложения

Перейти:  
Для Мосгорсуда, Роскомнадзора и рекламодателей: mosgorsud-torrent[собачка]yandex.ru
 Вход
ppkBB3cker v.2 © 2008-2014 @ PPK
[ Time : 0.028s | 15 Queries | GZIP : Off ]

Торрент трекер RUTOR.IN, Не можете зайти на rutor.org? Какой новый адрес рутор? Какое зеркало рутор? Не работает rutor.org и зеркала? Тогда наш торрент специально для вас. Rutor.in неофициальное зеркало rutor. В случае если у Вас заблокирован rutor или вдруг Вы не можете на него зайти, то Вы без труда сможете скачать бесплатно и без рекламы последние новинки кино, игр, сериалов и прочего у нас, на Rutor.in. Не нужно использовать прокси, чтобы зайти на рутор, достаточно воспользоваться нашим ресурсом. Все новые фильмы, игры, сериалы, книги и музыка за 2013 и 2014 годы через торрент бесплатно. Скачивайте фильмы в хорошем качестве, игры для пк, xbox, playstation без регистрации. У нас вы найдете новые Зарубежные сериалы и Русские сериалы 2013, 2014, 2015 годов. Оставайтесь с нами, качайте любимые фильмы, игры, сериалы, книги и музыку.