img image001 image001 image001 image001 image001 image001 image001 image001 image001 image001 image001 image001 image001 image001 image001

Planets Sun Sun Sun
Статистика раздачи
Автор: Снежана | Размер: 744.64 МБ | Добавлен: 27 июл 2013
Раздают: 60    Качают: 8
Скачать торрент
Скачать торрент
Описание торрента

СообщениеДобавлено: 27 июл 2013 

#77

Название: Шевели ластами 2
Оригинальное название: Sammy's avonturen 2
Год выпуска: 2012
Страна: Бельгия
Жанр: мультфильм, приключения
Продолжительность: 01:32:50
Перевод: Профессиональный (полное дублирование) [лицензия]
Субтитры: Нет

Режиссер: Бен Стассен / Ben Stassen
В ролях: Билли Ангер (Sammy, озвучка), Пэт Кэрролл (озвучка), Карлос МакКаллерс II (Ray, озвучка), Синда Адамс (Veterinarian), Дино Андраде (Manuel Hogfish), Крис Эндрю Кулла (Russian Snowcrab, озвучка), Изабель Фурман (Shelly, озвучка), Уэсли Джонни (Sammy), Силье Рейномо (Several voices, (Norwegian)), Дуглас Райан Рот (Seagul #3), Майкл Сунь Ли (Japanese Fisherman), Джо Томас (Lulu the Lobster, озвучка)

Дублёры: Кирилл Туранский, Наталья Терешкова, Пётр Иващенко, Анна Денисова

Описание: Верные друзья навсегда, черепахи Сэмми и Рей, наслаждаются размеренной жизнью вблизи океана, а также присматривают за только что вылупившимися Рикки и Эллой. Внезапно, браконьер хватает больших черепах, они нужны ему для захватывающего морского шоу в Дубае. Центральная фигура шоу, морской конёк Большой Ди, посвящает новичков в свои планы на грандиозный побег.
Но, когда маленькие Рикки и Элла прибывают, чтобы спасти «дедушек», планы черепах и их новых друзей: пучеглазой рыбки Джимбо, осьминога Анабель, омара и большой семьи пингвинов, меняются. После ряда волнующих приключений и побегов, наши герои направляются на юг, чтобы встретиться с Шелли, первой и единственной любовью Сэмми.



Качество: HDRip
Формат: AVI
Видео кодек: XviD
Аудио кодек: MP3
Видео: 688x384 (1.79:1), 23.976 fps, XviD build 64 ~983 kbps avg, 0.16 bit/pixel
Аудио: 48 kHz, MPEG Layer 3, 2 ch, ~128.00 kbps avg

D:Мои рипыШевели ластами. HDRip by rip dexter lex.avi
General
Complete name : D:Мои рипыШевели ластами. HDRip by rip dexter lex.avi
Format : AVI
Format/Info : Audio Video Interleave
File size : 745 MiB
Duration : 1h 32mn
Overall bit rate : 1 121 Kbps
Writing application : VirtualDubMod 1.5.10.3 | www.virtualdub-fr.org || (build 2550/release)
Writing library : VirtualDubMod build 2550/release
Video #0
ID : 0
Format : MPEG-4 Visual
Format profile : Advanced Simple@L5
Format settings, BVOP : 1
Format settings, QPel : No
Format settings, GMC : No warppoints
Format settings, Matrix : Custom
Codec ID : XVID
Codec ID/Hint : XviD
Duration : 1h 32mn
Bit rate : 984 Kbps
Width : 688 pixels
Height : 384 pixels
Display aspect ratio : 1.79:1
Frame rate : 23.976 fps
Color space : YUV
Chroma subsampling : 4:2:0
Bit depth : 8 bits
Scan type : Progressive
Compression mode : Lossy
Bits/(Pixel*Frame) : 0.155
Stream size : 653 MiB (88%)
Writing library : XviD 64
Audio #1
ID : 1
Format : MPEG Audio
Format version : Version 1
Format profile : Layer 3
Codec ID : 55
Codec ID/Hint : MP3
Duration : 1h 32mn
Bit rate mode : Constant
Bit rate : 128 Kbps
Channel(s) : 2 channels
Sampling rate : 48.0 KHz
Compression mode : Lossy
Stream size : 85.0 MiB (11%)
Alignment : Aligned on interleaves
Interleave, duration : 42 ms (1.00 video frame)
Interleave, preload duration : 504 ms
Writing library : LAME3.99r
Encoding settings : -m s -V 4 -q 2 -lowpass 17 -b 128


Релиз от:



   Похожие торренты   Торрент   Размер 
В этой теме нет новых непрочитанных сообщений. Шевели ластами 2 / Sammy's avonturen 2 (2012) DVD5 от Youtracker

4 | 3

4.28 ГБ

В этой теме нет новых непрочитанных сообщений. Шевели ластами 2 / Sammy's avonturen 2 (2012) BDRip 1080p от Youtracker | 3D-Video

39 | 10

8.79 ГБ

В этой теме нет новых непрочитанных сообщений. Шевели ластами! / Sammy's Adventures: The Secret Passage / Sammy's avonturen: De geheime do (2010) BDRip 1080p от Youtracker | 3D-Video

24 | 3

5.68 ГБ

В этой теме нет новых непрочитанных сообщений. Шевели ластами 2 / Sammy's avonturen 2 (2012) HDRip | Лицензия

422 | 13

1.37 ГБ

В этой теме нет новых непрочитанных сообщений. Шевели ластами 2 / Sammy's avonturen 2 (2012) HDRip от Generalfilm | КПК | Лицензия

7 | 3

351.92 МБ

В этой теме нет новых непрочитанных сообщений. Шевели ластами 2 / Sammy's avonturen 2 (2012) BDRip 1080p

41 | 6

4.37 ГБ

В этой теме нет новых непрочитанных сообщений. Шевели ластами 2 / Sammy's avonturen 2 (2012) BDRip (720p)

18 | 2

4.25 ГБ




Вы не можете начинать темы
Вы не можете отвечать на сообщения
Вы не можете редактировать свои сообщения
Вы не можете удалять свои сообщения
Вы не можете добавлять вложения

Перейти:  
Для Мосгорсуда, Роскомнадзора и рекламодателей: mosgorsud-torrent[собачка]yandex.ru
 Вход
ppkBB3cker v.2 © 2008-2014 @ PPK
[ Time : 0.060s | 14 Queries | GZIP : On ]

Торрент трекер RUTOR.IN, Не можете зайти на rutor.org? Какой новый адрес рутор? Какое зеркало рутор? Не работает rutor.org и зеркала? Тогда наш торрент специально для вас. Rutor.in неофициальное зеркало rutor. В случае если у Вас заблокирован rutor или вдруг Вы не можете на него зайти, то Вы без труда сможете скачать бесплатно и без рекламы последние новинки кино, игр, сериалов и прочего у нас, на Rutor.in. Не нужно использовать прокси, чтобы зайти на рутор, достаточно воспользоваться нашим ресурсом. Все новые фильмы, игры, сериалы, книги и музыка за 2013 и 2014 годы через торрент бесплатно. Скачивайте фильмы в хорошем качестве, игры для пк, xbox, playstation без регистрации. У нас вы найдете новые Зарубежные сериалы и Русские сериалы 2013, 2014, 2015 годов. Оставайтесь с нами, качайте любимые фильмы, игры, сериалы, книги и музыку.